Скачать через торрент музыку The Brian Setzer Orchestra - Gettin In The Mood бесплатно без регистрации torrent

Если у вас наблюдаются проблемы со скриншотами, переходом по ссылками, скачиванием торрентов - проблемы в блокировщике рекламы AdBlock. #хорошегоДня!


Статистика раздачи
Размер:  65 MB   |    Зарегистрирован:  4 года 10 месяцев   |    .torrent скачан:  6 раз   |   
Раздают:  1  
   
Загрузка...
 
Автор Сообщение

Galfimbul

avatar Galfimbul


The Brian Setzer Orchestra / Gettin' In The Mood

Жанр: Jump Jive / Neo Rockabilly
Страна-производитель диска: EU
Год издания: 2000
Издатель (лейбл): Interscope Records Inc.
Номер по каталогу: 490 746-2
Страна: USA
Аудиокодек: FLAC (*.flac)
Тип рипа: image+.cue
Битрейт аудио: lossless
Продолжительность: 13:00
Источник (релизер): AUDELAS KINGDOM
Наличие сканов в содержимом раздачи: да

01. Gettin' In The Mood (Talkin' Trash Mix)
02. Rock-A-Beatin' Boogie (non LP B-Side)
03. Jump Jive An' Wail
Доп. информация: http://www.youtube.com/watch?v=itRaP1lFdvw
Exact Audio Copy V1.0 beta 2 from 29. April 2011

Отчёт EAC об извлечении, выполненном 11. декабря 2012, 20:02

The Brian Setzer Orchestra / Gettin' In The Mood

Дисковод: ATAPI iHAS124 B Adapter: 1 ID: 1

Режим чтения : ДостоверностьИспользование точного потока : ДаОтключение кэша аудио : ДаИспользование указателей C2 : Нет

Коррекция смещения при чтении : 6Способность читать области Lead-in и Lead-out : НетЗаполнение пропущенных сэмплов тишиной : ДаУдаление блоков с тишиной в начале и конце : НетПри вычислениях CRC использовались нулевые сэмплы : ДаИнтерфейс : Встроенный Win32-интерфейс для Win NT/2000

Выходной формат : Пользовательский кодировщикВыбранный битрейт : 1024 kBit/sКачество : ВысокийДобавление ID3-тега : НетУтилита сжатия : C:\Program Files\Exact Audio Copy\FLAC\FLAC.EXEДополнительные параметры : -6 -V -T "ARTIST=%artist%" -T "TITLE=%title%" -T "ALBUM=%albumtitle%" -T "DATE=%year%" -T "TRACKNUMBER=%tracknr%" -T "GENRE=%genre%" -T "COMMENT=%comment%" -T "BAND=%albuminterpret%" -T "COMPOSER=%composer%" %haslyrics%--tag-from-

TOC извлечённого CD

Трек | Старт | Длительность | Начальный сектор | Конечный сектор --------------------------------------------------------------------- 1 | 0:00.00 | 3:15.45 | 0 | 14669 2 | 3:15.45 | 2:24.47 | 14670 | 25516 3 | 5:40.17 | 2:53.25 | 25517 | 38516 4 | 11:05.42 | 7:26.11 | 49917 | 83377

Характеристики диапазона извлечения и сообщения об ошибках

Выбранный диапазон

Имя файла D:\Muzika\The Brian Setzer Orchestra - Gettin' In The Mood (2000)\The Brian Setzer Orchestra - Gettin' In The Mood.wav

Пиковый уровень 100.0 % Скорость извлечения 5.8 X Качество диапазона 100.0 % CRC теста F8154254 CRC копии F8154254 Копирование... OK

Ошибок не произошло

AccurateRip: сводка

Трек 1 отсутствует в базе данныхТрек 2 отсутствует в базе данныхТрек 3 отсутствует в базе данных

Ни одного трека нет в базе AccurateRip

Конец отчёта

==== Контрольная сумма отчёта 30985EB0ED651A18FC8A44FB54E760A9D1F7ED5EB707EBE13AF6AF76A16AE2B6 ====


Трекер:  [ 14-Дек-2012 10:37 ]

  

Скачать .torrent

Размер .torrent файла 11 KB


Размер: 65 MB
Хэш (hash) релиза: bd5dd2282361dec7e449aa3563ddd434b468a8c2

Еще никто не оставлял запись к записи скачать торрент The Brian Setzer Orchestra - Gettin In The Mood . Будь первым!

!Обратная связь