Скачать через торрент музыку Mary McBride - Everything Seemed Alright - 2002, FLAC бесплатно без регистрации torrent

Если у вас наблюдаются проблемы со скриншотами, переходом по ссылками, скачиванием торрентов - проблемы в блокировщике рекламы AdBlock. #хорошегоДня!


Статистика раздачи
Размер:  314 MB   |    Зарегистрирован:  4 года 11 месяцев   |    .torrent скачан:  3 раза   |   
Раздают:  1  
   
Загрузка...
 
Автор Сообщение

Galfimbul

avatar Galfimbul


Mary McBride / Everything Seemed Alright

Жанр: Folk/Country/Rock
Страна-производитель диска: usa
Год издания диска: 2002
Страна: usa
Аудиокодек: FLAC (*.flac)
Тип рипа: image+.cue
Битрейт аудио: lossless
Продолжительность: 45:31
Источник (релизер): Взят с рук Mary McBride 10.07.2011.
Наличие сканов в содержимом раздачи: да

Треклист:
1 Rev It Up
2 If You Lived in My Town
3 Half Gone
4 Everything Seemed Alright
5 Going Down Fast
6 Old Lea Johnson
7 Big Old Oak Table
8 That Was Then, This Is Now
9 Boys
10 Blind Boy
11 Crazy Again
Exact Audio Copy V0.99 prebeta 1 from 25. May 2007

Отчёт EAC об извлечении, выполненном 11. июля 2011, 12:07

Mary McBride / Everything Seemed Alright

Дисковод: Optiarc DVD RW AD-5200S Adapter: 1 ID: 1

Режим чтения : ДостоверностьИспользование точного потока : ДаОтключение кэша аудио : ДаИспользование указателей C2 : Нет

Коррекция смещения при чтении : 48Способность читать области Lead-in и Lead-out : НетЗаполнение пропущенных сэмплов тишиной : ДаУдаление блоков с тишиной в начале и конце : НетИнтерфейс : Встроенный Win32-интерфейс для Win NT/2000

Выходной формат : Пользовательский кодировщикВыбранный битрейт : 1024 kBit/sКачество : ВысокийДобавление ID3-тэга : НетУтилита сжатия : C:\Program Files\Exact Audio Copy\Flac\flac.exeДополнительные параметры : -6 -V -T "ARTIST=%a" -T "TITLE=%t" -T "ALBUM=%g" -T "DATE=%y" -T "TRACKNUMBER=%n" -T "GENRE=%m" -T "COMMENT=%e" %s -o %d

TOC извлечённого CD

Трек | Старт | Длительность | Начальный сектор | Конечный сектор --------------------------------------------------------------------- 1 | 0:00.00 | 3:09.42 | 0 | 14216 2 | 3:09.42 | 4:05.43 | 14217 | 32634 3 | 7:15.10 | 3:09.62 | 32635 | 46871 4 | 10:24.72 | 2:44.28 | 46872 | 59199 5 | 13:09.25 | 3:39.05 | 59200 | 75629 6 | 16:48.30 | 3:39.47 | 75630 | 92101 7 | 20:28.02 | 3:39.08 | 92102 | 108534 8 | 24:07.10 | 3:17.67 | 108535 | 123376 9 | 27:25.02 | 3:05.53 | 123377 | 137304 10 | 30:30.55 | 5:30.62 | 137305 | 162116 11 | 36:01.42 | 9:29.45 | 162117 | 204836

Характеристики диапазона извлечения и сообщения об ошибках

Выбранный диапазон

Имя файла F:\0 - Mary McBride - Everything Seemed Alright\Mary McBride - Everything Seemed Alright\Mary McBride - Everything Seemed Alright.wav

Пиковый уровень 100.0 % Качество диапазона 100.0 % CRC копии ED22AD7E Копирование... OK

AccurateRip: сводка

Трек 1 точное извлечение (доверие 2) [FF930618]Трек 2 точное извлечение (доверие 2) [06D94EDC]Трек 3 точное извлечение (доверие 2) [FD36CAEC]Трек 4 точное извлечение (доверие 2) [82848EF3]Трек 5 точное извлечение (доверие 2) [F24C0917]Трек 6 точное извлечение (доверие 2) [F8C93227]Трек 7 точное извлечение (доверие 2) [2E2EA68C]Трек 8 точное извлечение (доверие 2) [158959E7]Трек 9 точное извлечение (доверие 2) [B492F577]Трек 10 точное извлечение (доверие 2) [1E19DE98]Трек 11 точное извлечение (доверие 2) [FBE4815C]

Ошибок не произошло

Конец отчёта


Трекер:  [ 14-Дек-2012 10:37 ]

  

Скачать .torrent

Размер .torrent файла 2 KB


Размер: 314 MB
Хэш (hash) релиза: 208b147b3e24f54bb84fd7e1295ad86676bd58f0

Еще никто не оставлял запись к записи скачать торрент Mary McBride - Everything Seemed Alright - 2002, FLAC . Будь первым!

!Обратная связь