Скачать через торрент музыку Suzanne Vega - Close-Up, Vol.3: States of Being - 2011, FLAC бесплатно без регистрации torrent

Если у вас наблюдаются проблемы со скриншотами, переходом по ссылками, скачиванием торрентов - проблемы в блокировщике рекламы AdBlock. #хорошегоДня!


Статистика раздачи
Размер:  238 MB   |    Зарегистрирован:  4 года 10 месяцев   |    .torrent скачан:  25 раз   |   
Раздают:  1  
   
Загрузка...
 
Автор Сообщение

Galfimbul

avatar Galfimbul


Suzanne Vega - Close-Up, Vol.3: States of Being

Жанр: Acoustic Folk, Pop/Rock
Год издания: 2011
Издатель (лейбл): Amanuensis/Cooking Vinyl
Номер по каталогу: COOKCD523
Страна: США
Аудиокодек: FLAC (*.flac)
Тип рипа: image+.cue
Битрейт аудио: lossless
Продолжительность: 44:09
Источник (релизер): transgressions (hqshare)
Наличие сканов в содержимом раздачи: да

Треклист:
01. Undertow (3:31)
02. When Heroes Go Down (2:06)
03. My Favorite Plum (2:38)
04. Solitude Standing (3:59)
05. Cracking (2:58)
06. Last Years Troubles (3:08)
07. Solitaire (2:15)
08. Tombstone (2:47)
09. Blood Makes Noise (3:05)
10. 50-50 Chance (2:48)
11. Penitent (4:08)
12. Straight Lines (4:03)
13. Pornographer's Dream (3:31)
14. Instant of the Hour After (3:11)
Exact Audio Copy V1.0 beta 3 from 29. August 2011

EAC extraction logfile from 22. October 2012, 20:36

Suzanne Vega / Close-Up Vol 3 - States Of Being

Used drive : ATAPI iHAS324 A Adapter: 0 ID: 1

Read mode : SecureUtilize accurate stream : YesDefeat audio cache : YesMake use of C2 pointers : No

Read offset correction : 6Overread into Lead-In and Lead-Out : NoFill up missing offset samples with silence : YesDelete leading and trailing silent blocks : NoNull samples used in CRC calculations : YesUsed interface : Native Win32 interface for Win NT & 2000

Used output format : Internal WAV RoutinesSample format : 44.100 Hz; 16 Bit; Stereo

TOC of the extracted CD

Track | Start | Length | Start sector | End sector --------------------------------------------------------- 1 | 0:00.00 | 3:31.18 | 0 | 15842 2 | 3:31.18 | 2:05.68 | 15843 | 25285 3 | 5:37.11 | 2:37.69 | 25286 | 37129 4 | 8:15.05 | 3:58.72 | 37130 | 55051 5 | 12:14.02 | 2:58.30 | 55052 | 68431 6 | 15:12.32 | 3:08.19 | 68432 | 82550 7 | 18:20.51 | 2:15.23 | 82551 | 92698 8 | 20:35.74 | 2:46.70 | 92699 | 105218 9 | 23:22.69 | 3:05.33 | 105219 | 119126 10 | 26:28.27 | 2:48.35 | 119127 | 131761 11 | 29:16.62 | 4:08.05 | 131762 | 150366 12 | 33:24.67 | 4:02.72 | 150367 | 168588 13 | 37:27.64 | 3:31.01 | 168589 | 184414 14 | 40:58.65 | 3:10.71 | 184415 | 198735

Range status and errors

Selected range

Filename D:\rips\Suzanne Vega - Close-Up Vol 3 - States Of Being.wav

Peak level 100.0 % Extraction speed 3.0 X Range quality 100.0 % Test CRC 1996C190 Copy CRC 1996C190 Copy OK

No errors occurred

AccurateRip summary

Track 1 cannot be verified as accurate (confidence 7) [034DBB30], AccurateRip returned [6BBBED53] (AR v2)Track 2 cannot be verified as accurate (confidence 7) [1752D670], AccurateRip returned [595F2865] (AR v2)Track 3 cannot be verified as accurate (confidence 7) [6AFF5334], AccurateRip returned [914DC920] (AR v2)Track 4 cannot be verified as accurate (confidence 7) [94CEB0DE], AccurateRip returned [7A5357AF] (AR v2)Track 5 cannot be verified as accurate (confidence 7) [C0CF151A], AccurateRip returned [795AA06C] (AR v2)Track 6 cannot be verified as accurate (confidence 7) [334B5DF2], AccurateRip returned [7F3B387C] (AR v2)Track 7 cannot be verified as accurate (confidence 7) [5D27C6ED], AccurateRip returned [37272FF4] (AR v2)Track 8 cannot be verified as accurate (confidence 7) [2AC08BCD], AccurateRip returned [18B8DBF7] (AR v2)Track 9 cannot be verified as accurate (confidence 7) [7BA15149], AccurateRip returned [25C354E8] (AR v2)Track 10 cannot be verified as accurate (confidence 7) [CADCE35F], AccurateRip returned [17E31D89] (AR v2)Track 11 cannot be verified as accurate (confidence 7) [E9ACFD3E], AccurateRip returned [4703C575] (AR v2)Track 12 cannot be verified as accurate (confidence 7) [A6AD77B6], AccurateRip returned [D424A897] (AR v2)Track 13 cannot be verified as accurate (confidence 7) [909085B2], AccurateRip returned [0756E781] (AR v2)Track 14 cannot be verified as accurate (confidence 7) [B74B53D3], AccurateRip returned [9E5B7201] (AR v2)

No tracks could be verified as accurateYou may have a different pressing from the one(s) in the database

End of status report

---- CUETools DB Plugin V2.1.3

[CTDB TOCID: U23dEURcSwve2iL1mnssvM99ie4-] found, Submit result: U23dEURcSwve2iL1mnssvM99ie4- has been confirmed[d289f3e1] (11/11) Accurately ripped

==== Log checksum 6C3D8729968D785BCBAC1A49551810ECE9651E2270C88A8F356B83D0DED69EAA ====
REM GENRE PopREM DATE 2011REM DISCID AC0A590EREM COMMENT "ExactAudioCopy v1.0b3"CATALOG 0698519253026PERFORMER "Suzanne Vega"TITLE "Close-Up, Vol.3: States of Being"FILE "Suzanne Vega - Close-Up, Vol.3- States of Being.wav" WAVE TRACK 01 AUDIO TITLE "Undertow" PERFORMER "Suzanne Vega" ISRC USA6W1125301 INDEX 01 00:00:00 TRACK 02 AUDIO TITLE "When Heroes Go Down" PERFORMER "Suzanne Vega" ISRC USA6W1125302 INDEX 00 03:30:08 INDEX 01 03:31:18 TRACK 03 AUDIO TITLE "My Favorite Plum" PERFORMER "Suzanne Vega" ISRC USA6W1125303 INDEX 00 05:35:10 INDEX 01 05:37:11 TRACK 04 AUDIO TITLE "Solitude Standing" PERFORMER "Suzanne Vega" ISRC USA6W1125304 INDEX 00 08:12:54 INDEX 01 08:15:05 TRACK 05 AUDIO TITLE "Cracking" PERFORMER "Suzanne Vega" ISRC USA6W1125305 INDEX 00 12:12:04 INDEX 01 12:14:02 TRACK 06 AUDIO TITLE "Last Years Troubles" PERFORMER "Suzanne Vega" ISRC USA6W1125306 INDEX 00 15:11:12 INDEX 01 15:12:32 TRACK 07 AUDIO TITLE "Solitaire" PERFORMER "Suzanne Vega" ISRC USA6W1125307 INDEX 00 18:19:64 INDEX 01 18:20:51 TRACK 08 AUDIO TITLE "Tombstone" PERFORMER "Suzanne Vega" ISRC USA6W1125308 INDEX 00 20:34:49 INDEX 01 20:35:74 TRACK 09 AUDIO TITLE "Blood Makes Noise" PERFORMER "Suzanne Vega" ISRC USA6W1125309 INDEX 00 23:21:10 INDEX 01 23:22:69 TRACK 10 AUDIO TITLE "50-50 Chance" PERFORMER "Suzanne Vega" ISRC USA6W1125310 INDEX 00 26:27:29 INDEX 01 26:28:27 TRACK 11 AUDIO TITLE "Penitent" PERFORMER "Suzanne Vega" ISRC USA6W1125311 INDEX 00 29:15:65 INDEX 01 29:16:62 TRACK 12 AUDIO TITLE "Straight Lines" PERFORMER "Suzanne Vega" ISRC USA6W1125312 INDEX 00 33:23:46 INDEX 01 33:24:67 TRACK 13 AUDIO TITLE "Pornographer's Dream" PERFORMER "Suzanne Vega" ISRC USA6W1125313 INDEX 01 37:27:64 TRACK 14 AUDIO TITLE "Instant of the Hour After" PERFORMER "Suzanne Vega" ISRC USA6W1125314 INDEX 00 40:57:59 INDEX 01 40:58:65
[CUETools log; Date: 11.12.2012 12:35:03; Version: 2.1.4][CTDB TOCID: U23dEURcSwve2iL1mnssvM99ie4-] found.Track | CTDB Status 1 | (12/12) Accurately ripped 2 | (12/12) Accurately ripped 3 | (12/12) Accurately ripped 4 | (12/12) Accurately ripped 5 | (12/12) Accurately ripped 6 | (12/12) Accurately ripped 7 | (12/12) Accurately ripped 8 | (12/12) Accurately ripped 9 | (12/12) Accurately ripped 10 | (12/12) Accurately ripped 11 | (12/12) Accurately ripped 12 | (12/12) Accurately ripped 13 | (12/12) Accurately ripped 14 | (12/12) Accurately ripped[AccurateRip ID: 0015e648-00eb1b1c-ac0a590e] found.Track [ CRC | V2 ] Status 01 [b85414ed|034dbb30] (00+00/15) No match 02 [1ecf268e|1752d670] (00+00/15) No match 03 [9beddfa5|6aff5334] (00+00/15) No match 04 [bac0dc3e|94ceb0de] (00+00/15) No match 05 [550fd286|c0cf151a] (00+00/15) No match 06 [e7171258|334b5df2] (00+00/14) No match 07 [3982b063|5d27c6ed] (00+00/15) No match 08 [c98f2a55|2ac08bcd] (00+00/15) No match 09 [39ffb2d7|7ba15149] (00+00/15) No match 10 [9524277d|cadce35f] (00+00/15) No match 11 [03b3a80a|e9acfd3e] (00+00/15) No match 12 [8b1becd1|a6ad77b6] (00+00/15) No match 13 [9c9e0000|909085b2] (00+00/15) No match 14 [36e67fcc|b74b53d3] (00+00/15) No matchOffsetted by 520: 01 [6bbbed53] (09/15) Accurately ripped 02 [595f2865] (09/15) Accurately ripped 03 [914dc920] (09/15) Accurately ripped 04 [7a5357af] (09/15) Accurately ripped 05 [795aa06c] (09/15) Accurately ripped 06 [7f3b387c] (08/14) Accurately ripped 07 [37272ff4] (09/15) Accurately ripped 08 [18b8dbf7] (09/15) Accurately ripped 09 [25c354e8] (09/15) Accurately ripped 10 [17e31d89] (09/15) Accurately ripped 11 [4703c575] (09/15) Accurately ripped 12 [d424a897] (09/15) Accurately ripped 13 [0756e781] (09/15) Accurately ripped 14 [9e5b7201] (09/15) Accurately rippedOffsetted by 448: 01 [ef8d7b4c] (00/15) No match (V2 was not tested) 02 [ea96c123] (00/15) No match (V2 was not tested) 03 [2f6cb9d5] (00/15) No match (V2 was not tested) 04 [1c852bb3] (00/15) No match (V2 was not tested) 05 [f2169369] (00/15) No match (V2 was not tested) 06 [4df41160] (00/14) No match (V2 was not tested) 07 [ff4ac187] (00/15) No match (V2 was not tested) 08 [e04014db] (00/15) No match (V2 was not tested) 09 [687fed36] (00/15) No match (V2 was not tested) 10 [b98cd294] (00/15) No match (V2 was not tested) 11 [aaa8ce74] (00/15) No match (V2 was not tested) 12 [d1a15474] (00/15) No match (V2 was not tested) 13 [c1820b30] (00/15) No match (V2 was not tested) 14 [8b63a6ff] (00/15) No match (V2 was not tested)

Track Peak [ CRC32 ] [W/O NULL] [ LOG ] -- 100,0 [1996C190] [A793CEB8] CRC32 01 99,1 [7DF58944] [E34265A2] 02 98,7 [9D1FD6FD] [6FCD929D] 03 98,9 [2EA19EBF] [40146104] 04 98,8 [FF321450] [5DD7182D] 05 99,3 [40EA9E59] [D5FB5539] 06 99,0 [A24A441C] [07449999] 07 100,0 [4E4757FC] [3F5FFA43] 08 99,3 [9F3BB363] [3ADE2F5F] 09 99,1 [DF537EE6] [8C312C55] 10 99,2 [3C0806BC] [5545B00E] 11 98,8 [185285D9] [5FAADCD3] 12 90,3 [DB3EA4D4] [5B7D237A] 13 99,3 [3C8CCBFF] [41C9D1F0] 14 99,3 [6C1ACD63] [C2781AA7]
The third in a series of thematic albums that find Suzanne Vega revisiting her songbook (and not incidentally creating new recordings of her older songs that she owns rather than some major label), Close-Up, Vol. 3: States of Being collects 14 tunes that focus on various forms of emotional turmoil, and encompass what she calls “the freakier side of my songwriting.” Just as she did on the first two Close-Up albums, Vega strips these songs down to their essence, and while her guitar isn’t the only instrument on these new versions, the arrangements are spare and intimate even when she introduces strings and a backing band to the proceedings, and her voice is front and center at all times, her performances carrying the weight of her elegant wordplay and carefully structured scenarios. Vega produced Close-Up, Vol. 3, and her choices are clever, summoning an impressive degree of atmosphere and color with relatively simple backing (and the distorted guitar and percussion on “Blood Makes Noise” do an impressive job of standing in for the busy electronic clatter of the original recording). Vega’s vocal performances here are strong and confident, often more so than they were on her early albums, and she’s lived with this material long enough to communicate the desires and anxieties of her characters like a gifted actress. And like the other volumes in this series, this features a new song, in this case “Instant of the Hour After,” a collaboration with Duncan Sheik from a theater piece drawn from the writings of Carson McCullers, and it’s certainly on a par with the other material cherry-picked from over 20 years of record-making. While fans will have to ask themselves how many of these songs they want to own again, the craft and imagination that has gone into Close-Up, Vol. 3: States of Being sets this apart from most albums in which artists re-record their songs for a new label, and the results confirm Suzanne Vega is still a powerful interpreter of her own material.


Трекер:  [ 14-Дек-2012 10:36 ]

  

Скачать .torrent

Размер .torrent файла 20 KB


Размер: 238 MB
Хэш (hash) релиза: 9869eaefe79b37d202ca84cc38dc9fc18f5381a9

Еще никто не оставлял запись к записи скачать торрент Suzanne Vega - Close-Up, Vol.3: States of Being - 2011, FLAC . Будь первым!

!Обратная связь