Скачать через торрент музыку The Stargazers - Groove Baby Groove - 1982, FLAC бесплатно без регистрации torrent

Если у вас наблюдаются проблемы со скриншотами, переходом по ссылками, скачиванием торрентов - проблемы в блокировщике рекламы AdBlock. #хорошегоДня!


Статистика раздачи
Размер:  337 MB   |    Зарегистрирован:  4 года 8 месяцев   |    .torrent скачан:  7 раз   |   
Раздают:  1  
   
Загрузка...
 
Автор Сообщение

Galfimbul

avatar Galfimbul


The Stargazers / Groove Baby Groove

Жанр: Rock'n'Roll
Страна-производитель диска: Austria
Год издания: 1982 (1999)
Издатель (лейбл): Bluelight Records
Номер по каталогу: BLR 3369 2
Страна: UK
Аудиокодек: FLAC (*.flac)
Тип рипа: image+.cue
Битрейт аудио: lossless
Продолжительность: 47:22
Источник (релизер): AUDELAS KINGDOM
Наличие сканов в содержимом раздачи: да
01. Tossin' & Turnin'
02. Hey Marie
03. Swingin' Aye
04. Marcelle Mania
05. Walking The Chalk Line
06. Hey There You
07. Perdido/Caravan
08. Groove Baby Groove
09. Follow Your Heart
10. Pretty Senorita
11. Spin That 45
12. True Love
13. Rocket Ship To The Moon
14. Ain't Nobody Here But Us Chickens
15. Jump Around
16. La Rock 'n' Roll
17. Red Light Green Light
18. Scat The Riff
19. Go Go Honey
Exact Audio Copy V1.0 beta 2 from 29. April 2011

Отчёт EAC об извлечении, выполненном 10. декабря 2012, 18:55

The Stargazers / Groove Baby Groove

Дисковод: ATAPI iHAS124 B Adapter: 1 ID: 1

Режим чтения : ДостоверностьИспользование точного потока : ДаОтключение кэша аудио : ДаИспользование указателей C2 : Нет

Коррекция смещения при чтении : 6Способность читать области Lead-in и Lead-out : НетЗаполнение пропущенных сэмплов тишиной : ДаУдаление блоков с тишиной в начале и конце : НетПри вычислениях CRC использовались нулевые сэмплы : ДаИнтерфейс : Встроенный Win32-интерфейс для Win NT/2000

Выходной формат : Пользовательский кодировщикВыбранный битрейт : 1024 kBit/sКачество : ВысокийДобавление ID3-тега : НетУтилита сжатия : C:\Program Files\Exact Audio Copy\FLAC\FLAC.EXEДополнительные параметры : -6 -V -T "ARTIST=%artist%" -T "TITLE=%title%" -T "ALBUM=%albumtitle%" -T "DATE=%year%" -T "TRACKNUMBER=%tracknr%" -T "GENRE=%genre%" -T "COMMENT=%comment%" -T "BAND=%albuminterpret%" -T "COMPOSER=%composer%" %haslyrics%--tag-from-

TOC извлечённого CD

Трек | Старт | Длительность | Начальный сектор | Конечный сектор --------------------------------------------------------------------- 1 | 0:00.00 | 2:37.52 | 0 | 11826 2 | 2:37.52 | 2:21.50 | 11827 | 22451 3 | 4:59.27 | 2:36.18 | 22452 | 34169 4 | 7:35.45 | 2:15.37 | 34170 | 44331 5 | 9:51.07 | 2:39.03 | 44332 | 56259 6 | 12:30.10 | 2:18.40 | 56260 | 66649 7 | 14:48.50 | 2:57.32 | 66650 | 79956 8 | 17:46.07 | 2:08.40 | 79957 | 89596 9 | 19:54.47 | 2:07.38 | 89597 | 99159 10 | 22:02.10 | 2:12.70 | 99160 | 109129 11 | 24:15.05 | 2:32.27 | 109130 | 120556 12 | 26:47.32 | 2:41.03 | 120557 | 132634 13 | 29:28.35 | 3:34.50 | 132635 | 148734 14 | 33:03.10 | 2:28.30 | 148735 | 159864 15 | 35:31.40 | 2:09.45 | 159865 | 169584 16 | 37:41.10 | 2:39.22 | 169585 | 181531 17 | 40:20.32 | 2:40.50 | 181532 | 193581 18 | 43:01.07 | 2:27.03 | 193582 | 204609 19 | 45:28.10 | 2:35.07 | 204610 | 216241

Характеристики диапазона извлечения и сообщения об ошибках

Выбранный диапазон

Имя файла D:\Muzika\The Stargazers - Groove Baby Groove (1982)\The Stargazers - Groove Baby Groove.wav

Пиковый уровень 95.7 % Скорость извлечения 8.0 X Качество диапазона 100.0 % CRC теста A3496F5F CRC копии A3496F5F Копирование... OK

Ошибок не произошло

AccurateRip: сводка

Трек 1 отсутствует в базе данныхТрек 2 отсутствует в базе данныхТрек 3 отсутствует в базе данныхТрек 4 отсутствует в базе данныхТрек 5 отсутствует в базе данныхТрек 6 отсутствует в базе данныхТрек 7 отсутствует в базе данныхТрек 8 отсутствует в базе данныхТрек 9 отсутствует в базе данныхТрек 10 отсутствует в базе данныхТрек 11 отсутствует в базе данныхТрек 12 отсутствует в базе данныхТрек 13 отсутствует в базе данныхТрек 14 отсутствует в базе данныхТрек 15 отсутствует в базе данныхТрек 16 отсутствует в базе данныхТрек 17 отсутствует в базе данныхТрек 18 отсутствует в базе данныхТрек 19 отсутствует в базе данных

Ни одного трека нет в базе AccurateRip

Конец отчёта

==== Контрольная сумма отчёта 55BBDEB54B61075E005B9532CC772BEF5EE519AF0ABAAB09EA5EDCD4AED6F2BA ====


Трекер:  [ 14-Дек-2012 10:36 ]

  

Скачать .torrent

Размер .torrent файла 14 KB


Размер: 337 MB
Хэш (hash) релиза: a125be2ab7163ec66084e0b9197b013349aeb50d

Еще никто не оставлял запись к записи скачать торрент The Stargazers - Groove Baby Groove - 1982, FLAC . Будь первым!

!Обратная связь