Скачать через торрент музыку The Brian Setzer Orchestra - Jump Jive An Wail бесплатно без регистрации torrent

Если у вас наблюдаются проблемы со скриншотами, переходом по ссылками, скачиванием торрентов - проблемы в блокировщике рекламы AdBlock. #хорошегоДня!


Статистика раздачи
Размер:  66 MB   |    Зарегистрирован:  4 года 11 месяцев   |    .torrent скачан:  4 раза   |   
Раздают:  1  
   
Загрузка...
 
Автор Сообщение

Galfimbul

avatar Galfimbul


The Brian Setzer Orchestra / Jump Jive An' Wail

Жанр: Neo Rockabilly / Jump Jive
Страна-производитель диска: EU
Год издания: 1998
Издатель (лейбл): Interscope Records
Номер по каталогу: IND-95601
Страна: USA
Аудиокодек: FLAC (*.flac)
Тип рипа: image+.cue
Битрейт аудио: lossless
Продолжительность: 19:05
Источник (релизер): AUDELAS KINGDOM
Наличие сканов в содержимом раздачи: да
01. Jump Jive An' Wail
02. This Cat's On A Hot Tin Roof
03. Hoodoo Voodoo Doll
Доп. информация: http://www.youtube.com/watch?v=aHWcN5YxuYc
Exact Audio Copy V1.0 beta 2 from 29. April 2011

Отчёт EAC об извлечении, выполненном 10. декабря 2012, 19:31

The Brian Setzer Orchestra / Jump Jive An' Wail

Дисковод: ATAPI iHAS124 B Adapter: 1 ID: 1

Режим чтения : ДостоверностьИспользование точного потока : ДаОтключение кэша аудио : ДаИспользование указателей C2 : Нет

Коррекция смещения при чтении : 6Способность читать области Lead-in и Lead-out : НетЗаполнение пропущенных сэмплов тишиной : ДаУдаление блоков с тишиной в начале и конце : НетПри вычислениях CRC использовались нулевые сэмплы : ДаИнтерфейс : Встроенный Win32-интерфейс для Win NT/2000

Выходной формат : Пользовательский кодировщикВыбранный битрейт : 1024 kBit/sКачество : ВысокийДобавление ID3-тега : НетУтилита сжатия : C:\Program Files\Exact Audio Copy\FLAC\FLAC.EXEДополнительные параметры : -6 -V -T "ARTIST=%artist%" -T "TITLE=%title%" -T "ALBUM=%albumtitle%" -T "DATE=%year%" -T "TRACKNUMBER=%tracknr%" -T "GENRE=%genre%" -T "COMMENT=%comment%" -T "BAND=%albuminterpret%" -T "COMPOSER=%composer%" %haslyrics%--tag-from-

TOC извлечённого CD

Трек | Старт | Длительность | Начальный сектор | Конечный сектор --------------------------------------------------------------------- 1 | 0:00.32 | 2:56.38 | 32 | 13269 2 | 2:56.70 | 2:20.62 | 13270 | 23831 3 | 5:17.57 | 3:39.33 | 23832 | 40289

Характеристики диапазона извлечения и сообщения об ошибках

Выбранный диапазон

Имя файла D:\Muzika\The Brian Setzer Orchestra - Jump Jive An' Wail (1998)\The Brian Setzer Orchestra - Jump Jive An' Wail.wav

Пиковый уровень 98.8 % Скорость извлечения 5.5 X Качество диапазона 99.9 % CRC теста A96A33A6 CRC копии A96A33A6 Копирование... OK

Ошибок не произошло

AccurateRip: сводка

Трек 1 отсутствует в базе данныхТрек 2 отсутствует в базе данныхТрек 3 отсутствует в базе данных

Ни одного трека нет в базе AccurateRip

Конец отчёта

==== Контрольная сумма отчёта 82AC8D116F88B49C45B69D5CD9B65AB9EBEC3FEB7187D6E52F9845DEA296703E ====


Трекер:  [ 14-Дек-2012 10:36 ]

  

Скачать .torrent

Размер .torrent файла 11 KB


Размер: 66 MB
Хэш (hash) релиза: 66249b4b857f7b3b082b37fa828920fd71cdfc55

Еще никто не оставлял запись к записи скачать торрент The Brian Setzer Orchestra - Jump Jive An Wail . Будь первым!

!Обратная связь