Скачать через торрент музыку Gene Simmons - I Done Told You бесплатно без регистрации torrent

Если у вас наблюдаются проблемы со скриншотами, переходом по ссылками, скачиванием торрентов - проблемы в блокировщике рекламы AdBlock. #хорошегоДня!


Статистика раздачи
Размер:  254 MB   |    Зарегистрирован:  4 года 11 месяцев   |    .torrent скачан:  22 раза   |   
Раздают:  1  
   
Загрузка...
 
Автор Сообщение

Galfimbul

avatar Galfimbul


Gene Simmons / I Done Told You

Жанр: Rockabilly
Страна-производитель диска: Germany
Год издания: 2010
Издатель (лейбл): Snapper Music Label
Номер по каталогу: CAT.SROLLCD834
Страна: USA
Аудиокодек: FLAC (*.flac)
Тип рипа: image+.cue
Битрейт аудио: lossless
Продолжительность: 54:00
Источник (релизер): AUDELAS KINGDOM
Наличие сканов в содержимом раздачи: да

01. Drinkin' Wine
02. I Done Told You
03. Blues at Midnight (Alt. 1)
04. Down On the Border
05. Mom and Pop (Alt. 2)
06. Juicy Fruit (Alt. 2)
07. You Can't Break The Chains Of Love
08. Gene's Jumpin' Jive
09. Shake Rattle And Roll
10. If I'm Not Wanted
11. Peroxide Blonde and a Hopped Up Model Ford
12. Crazy Woman (Alt. 1)
13. I Don't Love You Baby
14. Money, Money, Money (Alt. 3)
15. I Done Told You (Alt. 1)
16. Drinkin' Wine (Alt. 2)
17. Mom and Pop (Alt. 1)
18. Down On the Border (Alt. 1)
19. Blues at Midnight (Alt. 2)
20. Juicy Fruit (Alt. 1)
21. Crazy Woman (Alt. 2)
22. Money, Money, Money (Alt. 2)
23. I Done Told You (Alt. 2)
24. Juicy Fruit (Alt. 3)
25. Money, Money, Money (Alt. 1)
26. If I'm Not Wanted
27. Drinkin' Scotch
Exact Audio Copy V1.0 beta 2 from 29. April 2011

Отчёт EAC об извлечении, выполненном 10. декабря 2012, 20:48

Gene Simmons / I Done Told You

Дисковод: ATAPI iHAS124 B Adapter: 1 ID: 1

Режим чтения : ДостоверностьИспользование точного потока : ДаОтключение кэша аудио : ДаИспользование указателей C2 : Нет

Коррекция смещения при чтении : 6Способность читать области Lead-in и Lead-out : НетЗаполнение пропущенных сэмплов тишиной : ДаУдаление блоков с тишиной в начале и конце : НетПри вычислениях CRC использовались нулевые сэмплы : ДаИнтерфейс : Встроенный Win32-интерфейс для Win NT/2000

Выходной формат : Пользовательский кодировщикВыбранный битрейт : 1024 kBit/sКачество : ВысокийДобавление ID3-тега : НетУтилита сжатия : C:\Program Files\Exact Audio Copy\FLAC\FLAC.EXEДополнительные параметры : -6 -V -T "ARTIST=%artist%" -T "TITLE=%title%" -T "ALBUM=%albumtitle%" -T "DATE=%year%" -T "TRACKNUMBER=%tracknr%" -T "GENRE=%genre%" -T "COMMENT=%comment%" -T "BAND=%albuminterpret%" -T "COMPOSER=%composer%" %haslyrics%--tag-from-

TOC извлечённого CD

Трек | Старт | Длительность | Начальный сектор | Конечный сектор --------------------------------------------------------------------- 1 | 0:00.00 | 2:41.52 | 0 | 12126 2 | 2:41.52 | 2:21.26 | 12127 | 22727 3 | 5:03.03 | 2:34.57 | 22728 | 34334 4 | 7:37.60 | 1:55.07 | 34335 | 42966 5 | 9:32.67 | 1:40.61 | 42967 | 50527 6 | 11:13.53 | 2:48.19 | 50528 | 63146 7 | 14:01.72 | 2:37.63 | 63147 | 74984 8 | 16:39.60 | 1:50.58 | 74985 | 83292 9 | 18:30.43 | 2:14.69 | 83293 | 93411 10 | 20:45.37 | 2:26.40 | 93412 | 104401 11 | 23:12.02 | 1:36.24 | 104402 | 111625 12 | 24:48.26 | 2:07.74 | 111626 | 121224 13 | 26:56.25 | 1:56.14 | 121225 | 129938 14 | 28:52.39 | 2:22.07 | 129939 | 140595 15 | 31:14.46 | 2:20.09 | 140596 | 151104 16 | 33:34.55 | 2:38.11 | 151105 | 162965 17 | 36:12.66 | 1:41.23 | 162966 | 170563 18 | 37:54.14 | 1:55.53 | 170564 | 179241 19 | 39:49.67 | 2:33.64 | 179242 | 190780 20 | 42:23.56 | 2:51.15 | 190781 | 203620 21 | 45:14.71 | 2:11.57 | 203621 | 213502 22 | 47:26.53 | 2:21.12 | 213503 | 224089 23 | 49:47.65 | 1:23.29 | 224090 | 230343 24 | 51:11.19 | 2:50.53 | 230344 | 243146 25 | 54:01.72 | 2:21.40 | 243147 | 253761 26 | 56:23.37 | 2:20.62 | 253762 | 264323 27 | 58:44.24 | 3:03.59 | 264324 | 278107

Характеристики диапазона извлечения и сообщения об ошибках

Выбранный диапазон

Имя файла D:\Muzika\Gene Simmons - I Done Told You (2010)\Gene Simmons - I Done Told You.wav

Пиковый уровень 98.4 % Скорость извлечения 8.6 X Качество диапазона 99.9 % CRC теста C7573AE0 CRC копии C7573AE0 Копирование... OK

Ошибок не произошло

AccurateRip: сводка

Трек 1 отсутствует в базе данныхТрек 2 отсутствует в базе данныхТрек 3 отсутствует в базе данныхТрек 4 отсутствует в базе данныхТрек 5 отсутствует в базе данныхТрек 6 отсутствует в базе данныхТрек 7 отсутствует в базе данныхТрек 8 отсутствует в базе данныхТрек 9 отсутствует в базе данныхТрек 10 отсутствует в базе данныхТрек 11 отсутствует в базе данныхТрек 12 отсутствует в базе данныхТрек 13 отсутствует в базе данныхТрек 14 отсутствует в базе данныхТрек 15 отсутствует в базе данныхТрек 16 отсутствует в базе данныхТрек 17 отсутствует в базе данныхТрек 18 отсутствует в базе данныхТрек 19 отсутствует в базе данныхТрек 20 отсутствует в базе данныхТрек 21 отсутствует в базе данныхТрек 22 отсутствует в базе данныхТрек 23 отсутствует в базе данныхТрек 24 отсутствует в базе данныхТрек 25 отсутствует в базе данныхТрек 26 отсутствует в базе данныхТрек 27 отсутствует в базе данных

Ни одного трека нет в базе AccurateRip

Конец отчёта

==== Контрольная сумма отчёта 07DE20A9ADE57365076C31A10D89128988011A2086D592753014A45FB9400D31 ====


Трекер:  [ 14-Дек-2012 10:36 ]

  

Скачать .torrent

Размер .torrent файла 20 KB


Размер: 254 MB
Хэш (hash) релиза: 9b27109151674812983af2802c3b75537c587ee5

Еще никто не оставлял запись к записи скачать торрент Gene Simmons - I Done Told You . Будь первым!

!Обратная связь