Скачать через торрент музыку The Spaniels - The Spaniels : 1957 - 1960 - 1997, FLAC бесплатно без регистрации torrent

Если у вас наблюдаются проблемы со скриншотами, переходом по ссылками, скачиванием торрентов - проблемы в блокировщике рекламы AdBlock. #хорошегоДня!


Статистика раздачи
Размер:  367 MB   |    Зарегистрирован:  4 года 8 месяцев   |    .torrent скачан:  3 раза   |   
Раздают:  1  
   
Загрузка...
 
Автор Сообщение

Galfimbul

avatar Galfimbul


The Spaniels / The Spaniels : 1957 - 1960

Жанр: Doo Wop
Страна-производитель диска: Italy
Год издания: 1997
Издатель (лейбл): Dipper Records
Номер по каталогу: Dipper 207
Страна: USA
Аудиокодек: FLAC (*.flac)
Тип рипа: image+.cue
Битрейт аудио: lossless
Продолжительность: 64:22
Источник (релизер): AUDELAS KINGDOM
Наличие сканов в содержимом раздачи: да

01. I Need Your Kiss
02. You're Gonna Cry
03. Crazee Baby
04. I Lost You
05. Lucinda (unreleased)
06. Little Joe (unreleased)
07. Great Goodley Moo
08. Tina
09. I'm Gonna Thank Him (unreleased)
10. Stormy Weather
11. Here Is Why I Love You
12. Heart And Soul
13. Automobiles (unreleased)
14. I Like It Like That
15. Trees
16. Baby Sweets (unreleased)
17. Red Sails In The Sunset
18. I'll Be Waiting (unreleased)
19. A Stranger In Love (unreleased)
20. These Three Words
21. 100 Years From Today
22. People Will Say We're In Love
23. So Deep Within (unreleased)
24. The Posse (unreleased)
25. I Know
26. I Know, I Know
Exact Audio Copy V1.0 beta 2 from 29. April 2011

Отчёт EAC об извлечении, выполненном 10. декабря 2012, 21:33

The Spaniels / The Spaniels : 1957 - 1960

Дисковод: ATAPI iHAS124 B Adapter: 1 ID: 1

Режим чтения : ДостоверностьИспользование точного потока : ДаОтключение кэша аудио : ДаИспользование указателей C2 : Нет

Коррекция смещения при чтении : 6Способность читать области Lead-in и Lead-out : НетЗаполнение пропущенных сэмплов тишиной : ДаУдаление блоков с тишиной в начале и конце : НетПри вычислениях CRC использовались нулевые сэмплы : ДаИнтерфейс : Встроенный Win32-интерфейс для Win NT/2000

Выходной формат : Пользовательский кодировщикВыбранный битрейт : 1024 kBit/sКачество : ВысокийДобавление ID3-тега : НетУтилита сжатия : C:\Program Files\Exact Audio Copy\FLAC\FLAC.EXEДополнительные параметры : -6 -V -T "ARTIST=%artist%" -T "TITLE=%title%" -T "ALBUM=%albumtitle%" -T "DATE=%year%" -T "TRACKNUMBER=%tracknr%" -T "GENRE=%genre%" -T "COMMENT=%comment%" -T "BAND=%albuminterpret%" -T "COMPOSER=%composer%" %haslyrics%--tag-from-

TOC извлечённого CD

Трек | Старт | Длительность | Начальный сектор | Конечный сектор --------------------------------------------------------------------- 1 | 0:00.30 | 2:23.04 | 30 | 10758 2 | 2:23.34 | 2:39.60 | 10759 | 22743 3 | 5:03.19 | 2:11.53 | 22744 | 32621 4 | 7:14.72 | 2:37.20 | 32622 | 44416 5 | 9:52.17 | 2:37.21 | 44417 | 56212 6 | 12:29.38 | 2:37.35 | 56213 | 68022 7 | 15:06.73 | 2:08.38 | 68023 | 77660 8 | 17:15.36 | 2:18.37 | 77661 | 88047 9 | 19:33.73 | 2:36.58 | 88048 | 99805 10 | 22:10.56 | 2:34.46 | 99806 | 111401 11 | 24:45.27 | 2:32.29 | 111402 | 122830 12 | 27:17.56 | 2:37.31 | 122831 | 134636 13 | 29:55.12 | 2:19.04 | 134637 | 145065 14 | 32:14.16 | 2:32.15 | 145066 | 156480 15 | 34:46.31 | 2:12.74 | 156481 | 166454 16 | 36:59.30 | 2:13.21 | 166455 | 176450 17 | 39:12.51 | 2:14.43 | 176451 | 186543 18 | 41:27.19 | 2:22.38 | 186544 | 197231 19 | 43:49.57 | 2:30.12 | 197232 | 208493 20 | 46:19.69 | 2:21.10 | 208494 | 219078 21 | 48:41.04 | 2:27.10 | 219079 | 230113 22 | 51:08.14 | 2:39.70 | 230114 | 242108 23 | 53:48.09 | 2:47.72 | 242109 | 254705 24 | 56:36.06 | 2:19.43 | 254706 | 265173 25 | 58:55.49 | 2:15.67 | 265174 | 275365 26 | 61:11.41 | 2:44.45 | 275366 | 287710

Характеристики диапазона извлечения и сообщения об ошибках

Выбранный диапазон

Имя файла D:\Muzika\The Spaniels - The Spaniels 1957-1960 (1997)\The Spaniels - The Spaniels - 1957 - 1960.wav

Пиковый уровень 94.2 % Скорость извлечения 8.5 X Качество диапазона 100.0 % CRC теста 104106A4 CRC копии 104106A4 Копирование... OK

Ошибок не произошло

AccurateRip: сводка

Трек 1 отсутствует в базе данныхТрек 2 отсутствует в базе данныхТрек 3 отсутствует в базе данныхТрек 4 отсутствует в базе данныхТрек 5 отсутствует в базе данныхТрек 6 отсутствует в базе данныхТрек 7 отсутствует в базе данныхТрек 8 отсутствует в базе данныхТрек 9 отсутствует в базе данныхТрек 10 отсутствует в базе данныхТрек 11 отсутствует в базе данныхТрек 12 отсутствует в базе данныхТрек 13 отсутствует в базе данныхТрек 14 отсутствует в базе данныхТрек 15 отсутствует в базе данныхТрек 16 отсутствует в базе данныхТрек 17 отсутствует в базе данныхТрек 18 отсутствует в базе данныхТрек 19 отсутствует в базе данныхТрек 20 отсутствует в базе данныхТрек 21 отсутствует в базе данныхТрек 22 отсутствует в базе данныхТрек 23 отсутствует в базе данныхТрек 24 отсутствует в базе данныхТрек 25 отсутствует в базе данныхТрек 26 отсутствует в базе данных

Ни одного трека нет в базе AccurateRip

Конец отчёта

==== Контрольная сумма отчёта 76A1DD9B90A45D681CD5AE0077075D561A6D76D86438905EAC26723DBE35FBAB ====


Трекер:  [ 14-Дек-2012 10:36 ]

  

Скачать .torrent

Размер .torrent файла 15 KB


Размер: 367 MB
Хэш (hash) релиза: 30a234cf9696211ee3982eb72922345b7dce045d

Еще никто не оставлял запись к записи скачать торрент The Spaniels - The Spaniels : 1957 - 1960 - 1997, FLAC . Будь первым!

!Обратная связь