Скачать через торрент Наруто Спецвыпуск 1 Naruto Special: Find the Crimson Four-leaf Clover! бесплатно Аниме Все серии на русском torrent

Если у вас наблюдаются проблемы со скриншотами, переходом по ссылками, скачиванием торрентов - проблемы в блокировщике рекламы AdBlock. #хорошегоДня!


Статистика раздачи
Размер:  231 MB   |    Зарегистрирован:  4 года 8 месяцев   |    .torrent скачан:  35 раз   |   
Раздают:  1  
   
Загрузка...
 
Автор Сообщение

Polarnik

avatar Polarnik


Наруто Спецвыпуск 1 | Naruto Special: Find the Crimson Four-leaf Clover!
Год выпуска: 2003
Страна: Япония
Жанр: приключения, комедия, боевые искусства, сёнэн
Продолжительность: 17 мин.
Тип: OVA
Студия:
Режиссёр: Хаято Датэ
Снято по манге: Naruto
Автор оригинала: Кисимото Масаси
Дата выхода: 24.05.2003
Субтитры: есть
Озвучивание: NIKITOS
Работа над звуком: DaveNolt
Работа над таймингом: Gigantic Guyver
Перевод: Leon Dead, NetRat
Энкод: CoRBoN
Релиз-группа:

Описание: Очередной день из жизни всем известного Узумаки Наруто. Сегодня ему предстоит найти легендарный алый клевер с четырьмя лепестками...
В ролях: Такэути Дзюнко, Накамура Тиэ, Иноэ Кадзухико, Оцука Хотю, Кацуки Масако, Нэмото Кэйко, Морикубо Сётаро, Сэки Тосихико, Тобита Нобуо, Цубой Томохиро, Отани Икуэ, Паку Роми, Мидзуки Нана
Качество: SATRip
Формат видео: AVI
Видео: XVID, 704х396, 23.976 кадр/сек, 1 496Кбит/сек
Аудио №1: RUS - MP3 48000 Hz, Stereo, 192 kbps
Аудио №2: JAP - MP3 48000 Hz, Stereo, 192 kbps
Язык Русский (в составе контейнера) ; Озвучка: (Одноголосная), NIKITOS / SHIZA
Общее
Полное имя : D:\[SHiZA Project] Naruto OVA [HWP]\[SHiZA Project] Find the Four-Leaf Red Clover! OVA [RUS JAP] [HWP] [704x396 XviD] [NIKITOS].avi
Формат : AVI
Формат/Информация : Audio Video Interleave
Размер файла : 231 Мбайт
Продолжительность : 17 м.
Общий поток : 1894 Кбит/сек
Программа кодирования : VirtualDubModRus 1.5.10.2 (build 2542/release)
Библиотека кодирования : VirtualDubMod build 2542/release

Видео
Идентификатор : 0
Формат : MPEG-4 Visual
Профиль формата : Simple@L3
Параметр BVOP формата : Нет
Параметр QPel формата : Нет
Параметр GMC формата : Без точки перехода
Параметр матрицы формата : Default (H.263)
Идентификатор кодека : XVID
Идентификатор кодека/Подсказка : XviD
Продолжительность : 17 м.
Битрейт : 1496 Кбит/сек
Ширина : 704 пикселя
Высота : 396 пикселей
Соотношение сторон : 4:3
Частота кадров : 23,976 кадра/сек
Цветовое пространство : YUV
Субдискретизация насыщенности : 4:2:0
Битовая глубина : 8 бит
Тип развёртки : Прогрессивная
Метод сжатия : С потерями
Бит/(Пиксели*Кадры) : 0.224
Размер потока : 182 Мбайт (79%)
Библиотека кодирования : XviD 64

Аудио #1
Идентификатор : 1
Формат : MPEG Audio
Версия формата : Version 1
Профиль формата : Layer 3
Режим : Joint stereo
Расширение режима : MS Stereo
Идентификатор кодека : 55
Идентификатор кодека/Подсказка : MP3
Продолжительность : 17 м.
Вид битрейта : Постоянный
Битрейт : 192 Кбит/сек
Каналы : 2 канала
Частота : 48,0 КГц
Метод сжатия : С потерями
Размер потока : 23,4 Мбайт (10%)
Выравнивание : Соединение по промежуткам
Продолжительность промежутка : 42 мс. (1,00 видеокадр)
Время предзагрузки промежутка : 504 мс.
Заголовок : Russian [NIKITOS]
Библиотека кодирования : LAME3.98.2

Аудио #2
Идентификатор : 2
Формат : MPEG Audio
Версия формата : Version 1
Профиль формата : Layer 3
Режим : Joint stereo
Расширение режима : MS Stereo
Идентификатор кодека : 55
Идентификатор кодека/Подсказка : MP3
Продолжительность : 17 м.
Вид битрейта : Постоянный
Битрейт : 192 Кбит/сек
Каналы : 2 канала
Частота : 48,0 КГц
Метод сжатия : С потерями
Размер потока : 23,4 Мбайт (10%)
Выравнивание : Соединение по промежуткам
Продолжительность промежутка : 42 мс. (1,00 видеокадр)
Время предзагрузки промежутка : 504 мс.
Заголовок : Japanese [Original]
Проигрывания на DVD плеере.


Трекер:  [ 11-Дек-2012 10:05 ]

  

Скачать .torrent

Размер .torrent файла 18 KB


Размер: 231 MB
Хэш (hash) релиза: bbf76d00409fa06553d0da1e63373f75d4e0b909
Подписка на обновления:

Торренты, похожие на Наруто Спецвыпуск 1 Naruto Special: Find the Crimson Four-leaf Clover! скачать торрент

Форум Название Автор Размер S L Добавлен
Наруто | Naruto ·· Наруто Спецвыпуск 1 / Naruto Special: Find the Crimson Four-leaf Clover! [OVA] [RUS(int)+JAP+SUB] [Без хардсаба] [2003 г., приключения, комедия, боевые искусства, сёнэн, SATRip] Polarnik 281984154269 MB 0 0 1355209440

10:04

11-Дек-12

Еще никто не оставлял запись к записи скачать торрент Наруто Спецвыпуск 1 Naruto Special: Find the Crimson Four-leaf Clover! . Будь первым!

!Обратная связь