Скачать через торрент музыку Marillion - Sounds That Cant Be Made - 2012, FLAC бесплатно без регистрации torrent

Если у вас наблюдаются проблемы со скриншотами, переходом по ссылками, скачиванием торрентов - проблемы в блокировщике рекламы AdBlock. #хорошегоДня!


Статистика раздачи
Размер:  631 MB   |    Зарегистрирован:  4 года 8 месяцев   |    .torrent скачан:  23 раза   |   
Раздают:  1  
   
Загрузка...
 
Автор Сообщение

Galfimbul

avatar Galfimbul


Marillion / Sounds That Can't Be Made

Жанр: Progressive rock
Страна-производитель диска: US
Год издания: 2012
Издатель (лейбл): Eagle Records
Номер по каталогу: ER202852
Страна: UK
Аудиокодек: FLAC (*.flac)
Тип рипа: image+.cue
Битрейт аудио: lossless
Продолжительность: 01:13:59
Источник (релизер): CD
Наличие сканов в содержимом раздачи: да
01. Gaza 17:30
02. Sounds That Can’t Be Made 07:16
03. Pour My Love 06:02
04. Power 06:06
05. Montréal 14:04
06. Invisible Ink 05:47
07. Lucky Man 06:58
08. The Sky Above The Rain 10:34
All music written by Marillion.
All lyrics by Steve Hogarth. Exept track 3 lyrics by John Helmer
Exact Audio Copy V1.0 beta 3 from 29. August 2011

Отчёт EAC об извлечении, выполненном 9. декабря 2012, 23:33

Marillion / Sounds That Can't Be Made

Дисковод: Optiarc DVD RW AD-7260S Adapter: 3 ID: 0

Режим чтения : ДостоверностьИспользование точного потока : ДаОтключение кэша аудио : ДаИспользование указателей C2 : Нет

Коррекция смещения при чтении : 48Способность читать области Lead-in и Lead-out : НетЗаполнение пропущенных сэмплов тишиной : ДаУдаление блоков с тишиной в начале и конце : НетПри вычислениях CRC использовались нулевые сэмплы : ДаИнтерфейс : Встроенный Win32-интерфейс для Win NT/2000

Выходной формат : Пользовательский кодировщикВыбранный битрейт : 896 kBit/sКачество : ВысокийДобавление ID3-тега : ДаУтилита сжатия : C:\Program Files\Exact Audio Copy\Flac\flac.exeДополнительные параметры : -V -8 -T "Genre=%genre%" -T "Artist=%artist%" -T "Title=%title%" -T "Album=%albumtitle%" -T "Date=%year%" -T "Tracknumber=%tracknr%" -T "Comment=%comment%" %source%

TOC извлечённого CD

Трек | Старт | Длительность | Начальный сектор | Конечный сектор --------------------------------------------------------------------- 1 | 0:00.00 | 17:30.69 | 0 | 78818 2 | 17:30.69 | 7:10.50 | 78819 | 111118 3 | 24:41.44 | 5:58.66 | 111119 | 138034 4 | 30:40.35 | 6:06.60 | 138035 | 165544 5 | 36:47.20 | 13:59.61 | 165545 | 228530 6 | 50:47.06 | 5:44.01 | 228531 | 254331 7 | 56:31.07 | 6:53.72 | 254332 | 285378 8 | 63:25.04 | 10:34.34 | 285379 | 332962

Характеристики диапазона извлечения и сообщения об ошибках

Выбранный диапазон

Имя файла G:\Моя папка\Marillion - Sounds That Can't Be Made (2012) (flac)\Marillion - Sounds That Can't Be Made.wav

Пиковый уровень 100.0 % Скорость извлечения 4.4 X Качество диапазона 99.9 % CRC теста 19C71EF6 CRC копии 19C71EF6 Копирование... OK

Ошибок не произошло

AccurateRip: сводка

Трек 1 точность не определена (достоверность 1) [2D90E675], AccurateRip вернул [704208E4] (AR v2)Трек 2 точность не определена (достоверность 1) [FDE637DA], AccurateRip вернул [A8EB1F87] (AR v2)Трек 3 точность не определена (достоверность 1) [BFF3E2BB], AccurateRip вернул [A6816AC2] (AR v2)Трек 4 точность не определена (достоверность 1) [9738828E], AccurateRip вернул [FF3928D7] (AR v2)Трек 5 точность не определена (достоверность 1) [E7C81E41], AccurateRip вернул [923F874A] (AR v2)Трек 6 точность не определена (достоверность 1) [89CAD25E], AccurateRip вернул [1F8C20F3] (AR v2)Трек 7 точность не определена (достоверность 1) [DC64D8BB], AccurateRip вернул [5E494F01] (AR v2)Трек 8 точность не определена (достоверность 1) [00340E2B], AccurateRip вернул [9006BC17] (AR v2)

Ни один трек не прошёл проверки на точностьВ вашей базе может быть иной вариант штамповки диска

Конец отчёта
AUDIOCHECKER v2.0 beta (build 457) - by Dester - <a href="mailto:opdester@freemail.hu" class="postLink">opdester@freemail.hu</a>~~~~~~~~~~~~~~~~~~~~~~~~~~~~~~~~~~-=== НЕ РЕДАКТИРУЙТЕ ЭТОТ ФАЙЛ! ===-

Путь: ...\Marillion - Sounds That Can't Be Made (2012) (flac)

1 -=- Marillion - Sounds That Can't Be Made.flac -=- CDDA (99%)

224965572


Трекер:  [ 10-Дек-2012 13:24 ]

  

Скачать .torrent

Размер .torrent файла 13 KB


Размер: 631 MB
Хэш (hash) релиза: 79cc139b902439ca613bfe51278964358bb50785

Еще никто не оставлял запись к записи скачать торрент Marillion - Sounds That Cant Be Made - 2012, FLAC . Будь первым!

!Обратная связь