Скачать через торрент музыку Outlaws - Los Hombres Malo - 1982, APE бесплатно без регистрации torrent

Если у вас наблюдаются проблемы со скриншотами, переходом по ссылками, скачиванием торрентов - проблемы в блокировщике рекламы AdBlock. #хорошегоДня!


Статистика раздачи
Размер:  383 MB   |    Зарегистрирован:  4 года 8 месяцев   |    .torrent скачан:  14 раз   |   
Раздают:  1  
   
Загрузка...
 
Автор Сообщение

Galfimbul

avatar Galfimbul


Outlaws / Los Hombres Malo

Жанр: Southern Rock
Год издания: 1982
Аудиокодек: APE (*.ape)
Тип рипа: image+.cue
Битрейт аудио: lossless
Источник (релизер): emule
Наличие сканов в содержимом раздачи: да
Треклист:
01 Don't Stop 5:01
02 Foxtail Lilly 4:32
03 Rebel Girl 4:27
04 Goodbye 4:28
05 Back From Eternity 4:31
06 Won't Come Out Of The Rain 3:58
07 Running 4:21
08 Easy Does It 3:30
09 All Roads 4:32
10 Rebel Girl (Radio Remix) 4:21
11 Don't Stop (Radio Remix) 4:57
12 Running (Radio Remix) 4:19
13 Goodbye (Radio Remix) 4:26
Exact Audio Copy V1.0 beta 2 from 29. April 2011

Отчёт EAC об извлечении, выполненном 22. мая 2012, 23:50

Outlaws / Los Hombres Malo

Дисковод: _NEC DV-5800C Adapter: 3 ID: 1

Режим чтения : Достоверность
Использование точного потока : Да
Отключение кэша аудио : Да
Использование указателей C2 : Нет

Коррекция смещения при чтении : 12
Способность читать области Lead-in и Lead-out : Нет
Заполнение пропущенных сэмплов тишиной : Да
Удаление блоков с тишиной в начале и конце : Нет
При вычислениях CRC использовались нулевые сэмплы : Нет
Интерфейс : Встроенный Win32-интерфейс для Win NT/2000

Выходной формат : Внутренние WAV-операции
Формат сэмплов : 44.100 Гц; 16 бит; стерео

TOC извлечённого CD

Трек | Старт | Длительность | Начальный сектор | Конечный сектор
---------------------------------------------------------------------
1 | 0:00.00 | 5:01.23 | 0 | 22597
2 | 5:01.23 | 4:32.28 | 22598 | 43025
3 | 9:33.51 | 4:27.54 | 43026 | 63104
4 | 14:01.30 | 4:28.49 | 63105 | 83253
5 | 18:30.04 | 4:31.25 | 83254 | 103603
6 | 23:01.29 | 3:58.35 | 103604 | 121488
7 | 26:59.64 | 4:21.34 | 121489 | 141097
8 | 31:21.23 | 3:30.37 | 141098 | 156884
9 | 34:51.60 | 4:32.45 | 156885 | 177329
10 | 39:24.30 | 4:21.43 | 177330 | 196947
11 | 43:45.73 | 4:57.16 | 196948 | 219238
12 | 48:43.14 | 4:19.62 | 219239 | 238725
13 | 53:03.01 | 4:26.15 | 238726 | 258690

Характеристики диапазона извлечения и сообщения об ошибках

Выбранный диапазон

Имя файла D:\Outlaws - Los Hombres Malo.wav

Пиковый уровень 97.8 %
Скорость извлечения 6.3 X
Качество диапазона 100.0 %
CRC копии 60FFB921
Копирование... OK

Ошибок не произошло

AccurateRip: сводка

Трек 1 : извлечено точно (доверие 3) [A60C6F55] (AR v1)
Трек 2 : извлечено точно (доверие 2) [7744D41B] (AR v1)
Трек 3 : извлечено точно (доверие 2) [3EC82CDB] (AR v1)
Трек 4 : извлечено точно (доверие 2) [DA0333A9] (AR v1)
Трек 5 : извлечено точно (доверие 2) [6AC7AE4A] (AR v1)
Трек 6 : извлечено точно (доверие 2) [75B0565E] (AR v1)
Трек 7 : извлечено точно (доверие 2) [88AF1BCF] (AR v1)
Трек 8 : извлечено точно (доверие 2) [6739C9D0] (AR v1)
Трек 9 : извлечено точно (доверие 2) [E947AAAE] (AR v1)
Трек 10 : извлечено точно (доверие 2) [16FE5239] (AR v1)
Трек 11 : извлечено точно (доверие 2) [147E9213] (AR v1)
Трек 12 : извлечено точно (доверие 2) [3AD21D08] (AR v1)
Трек 13 : извлечено точно (доверие 2) [3B607EEC] (AR v1)

Все треки извлечены точно

Конец отчёта
REM DISCID AD0D790D
REM COMMENT "ExactAudioCopy v1.0b2"
PERFORMER "Outlaws"
TITLE "Los Hombres Malo"
FILE "Outlaws - Los Hombres Malo.wav" WAVE
TRACK 01 AUDIO
TITLE "Don't Stop"
PERFORMER "Outlaws"
INDEX 01 00:00:00
TRACK 02 AUDIO
TITLE "Foxtail Lilly"
PERFORMER "Outlaws"
INDEX 01 05:01:23
TRACK 03 AUDIO
TITLE "Rebel Girl"
PERFORMER "Outlaws"
INDEX 01 09:33:51
TRACK 04 AUDIO
TITLE "Goodbye"
PERFORMER "Outlaws"
INDEX 01 14:01:30
TRACK 05 AUDIO
TITLE "Back From Eternity"
PERFORMER "Outlaws"
INDEX 01 18:30:04
TRACK 06 AUDIO
TITLE "Won't Come Out Of The Rain"
PERFORMER "Outlaws"
INDEX 01 23:01:29
TRACK 07 AUDIO
TITLE "Running"
PERFORMER "Outlaws"
INDEX 01 26:59:64
TRACK 08 AUDIO
TITLE "Easy Does It"
PERFORMER "Outlaws"
INDEX 01 31:21:23
TRACK 09 AUDIO
TITLE "All Roads"
PERFORMER "Outlaws"
INDEX 01 34:51:60
TRACK 10 AUDIO
TITLE "Rebel Girl (Radio Remix)"
PERFORMER "Outlaws"
INDEX 01 39:24:30
TRACK 11 AUDIO
TITLE "Don't Stop (Radio Remix)"
PERFORMER "Outlaws"
INDEX 01 43:45:73
TRACK 12 AUDIO
TITLE "Running (Radio Remix)"
PERFORMER "Outlaws"
INDEX 01 48:43:14
TRACK 13 AUDIO
TITLE "Goodbye (Radio Remix)"
PERFORMER "Outlaws"
INDEX 01 53:03:01
-----------------------

DON'T MODIFY THIS FILE

-----------------------

PERFORMER: auCDtect Task Manager, ver. 1.5.1RC6 build 1.5.1.7
Copyright (c) 2008-2010 y-soft. All rights reserved
http://y-soft.org

ANALYZER: auCDtect: CD records authenticity detector, version 0.8.2
Copyright (c) 2004 Oleg Berngardt. All rights reserved.
Copyright (c) 2004 Alexander Djourik. All rights reserved.

FILE: Outlaws - Los Hombres Malo.ape
Size: 400523740 Hash: 542FCA78E6E44376CA99671A0F701350 Accuracy: -m0
Conclusion: CDDA 100%
Signature: 70C36ADFD51F05D29BB47925CF502CF2CE8F18A2


Трекер:  [ 10-Дек-2012 06:35 ]

  

Скачать .torrent

Размер .torrent файла 15 KB


Размер: 383 MB
Хэш (hash) релиза: 549767beab96aed2a92430c59a5996051fe07f1d

Еще никто не оставлял запись к записи скачать торрент Outlaws - Los Hombres Malo - 1982, APE . Будь первым!

!Обратная связь