Скачать через торрент музыку Shocking Blue - Very Best of Collected бесплатно без регистрации torrent

Если у вас наблюдаются проблемы со скриншотами, переходом по ссылками, скачиванием торрентов - проблемы в блокировщике рекламы AdBlock. #хорошегоДня!


Статистика раздачи
Размер:  1023 MB   |    Зарегистрирован:  4 года 8 месяцев   |    .torrent скачан:  25 раз   |   
Раздают:  1  
   
Загрузка...
 
Автор Сообщение

Galfimbul

avatar Galfimbul


Shocking Blue - Very Best of Collected (Greatest Hits/At Home)

Жанр: Rock
Страна-производитель диска: Holland
Год издания бокса: 2011
Издатель (лейбл): Red Bullet
Номер по каталогу: 66.280
Страна: Holland
Аудио кодек: FLAC
Тип рипа: image+.cue
Битрейт аудио: lossless
Продолжительность: Cd1 - 60:00;Cd2 - 45:16
Источник (релизер): dafnaplus
Наличие сканов в содержимом раздачи: Да
Трэклист:
Cd1 (Greatest Hits):
01. Venus 3:04
02. Mighty Joe 3:10
03. Never Marry A Railroad Man 3:07
04. Hello Darkness 2:56
05. Shocking You 3:02
06. Blossom Lady 3:36
07. Out Of Sight Out Of Mind 2:48
08. Inkpot 2:40
09. Rock In The Sea 3:00
10. Eve And The Apple 2:43
11. Oh Lord 2:31
12. Lucy Brown Is Back In Town 2:53
13. Send Me A Postcard 2:41
14. Long And Lonesome Road 2:51
15. Let Me Carry Your Bag 3:28
16. This America 2:58
17. Gonna Sing Me A Song 2:45
18. Hot Sand 2:40
19. Sally Was a Good Old Girl 3:46
20. Love Buzz 3:59
Cd2 (At Home):
01. Boll Weevil 2:42
02. I'll Write Your Name Through The Fire 2:58
03. Acka Raga 3:08
04. Love Machine 3:21
05. I'm A Woman 3:03
06. Venus 3:08
07. California Here I Come 3:16
08. Poor Boy 2:28
09. Long And Lonesome Road 2:50
10. Love Buzz 3:46
11. The Butterfly And I 4:04
12. Harley Davidson 2:40
13. Fireball Of Love 3:02
14. Hot Sand 2:37
15. Wild Wind 2:14
Exact Audio Copy V1.0 beta 3 from 29. August 2011

EAC extraction logfile from 9. December 2012, 14:20

Shocking Blue / Greatest Hits (Disc 1) [66.239)

Used drive : PLEXTOR DVDR PX-891SA Adapter: 1 ID: 0

Read mode : SecureUtilize accurate stream : YesDefeat audio cache : YesMake use of C2 pointers : No

Read offset correction : 6Overread into Lead-In and Lead-Out : NoFill up missing offset samples with silence : YesDelete leading and trailing silent blocks : NoNull samples used in CRC calculations : YesUsed interface : Native Win32 interface for Win NT & 2000

Used output format : User Defined EncoderSelected bitrate : 1024 kBit/sQuality : HighAdd ID3 tag : NoCommand line compressor : C:\Program Files\Exact Audio Copy\Flac\flac.exeAdditional command line options : -V -8 -T "Genre=%genre%" -T "Artist=%artist%" -T "Title=%title%" -T "Album=%albumtitle%" -T "Date=%year%" -T "Tracknumber=%tracknr%" -T "Comment=%comment%" %source%

TOC of the extracted CD

Track | Start | Length | Start sector | End sector --------------------------------------------------------- 1 | 0:00.00 | 3:03.67 | 0 | 13791 2 | 3:03.67 | 3:10.30 | 13792 | 28071 3 | 6:14.22 | 3:07.08 | 28072 | 42104 4 | 9:21.30 | 2:56.35 | 42105 | 55339 5 | 12:17.65 | 3:01.70 | 55340 | 68984 6 | 15:19.60 | 3:36.30 | 68985 | 85214 7 | 18:56.15 | 2:47.45 | 85215 | 97784 8 | 21:43.60 | 2:40.37 | 97785 | 109821 9 | 24:24.22 | 2:59.68 | 109822 | 123314 10 | 27:24.15 | 2:43.03 | 123315 | 135542 11 | 30:07.18 | 2:31.00 | 135543 | 146867 12 | 32:38.18 | 2:53.25 | 146868 | 159867 13 | 35:31.43 | 2:41.05 | 159868 | 171947 14 | 38:12.48 | 2:51.00 | 171948 | 184772 15 | 41:03.48 | 3:27.45 | 184773 | 200342 16 | 44:31.18 | 2:57.60 | 200343 | 213677 17 | 47:29.03 | 2:44.50 | 213678 | 226027 18 | 50:13.53 | 2:39.50 | 226028 | 238002 19 | 52:53.28 | 3:46.31 | 238003 | 254983 20 | 56:39.59 | 3:59.01 | 254984 | 272909

Range status and errors

Selected range

Filename H:\dafnaplus\Shocking Blue - Very Best of Collected\Greatest Hits (Disc 1)\Shocking Blue - Greatest Hits (Disc 1) [66.239).wav

Peak level 98.2 % Extraction speed 8.3 X Range quality 100.0 % Test CRC 1B45B17B Copy CRC 1B45B17B Copy OK

No errors occurred

AccurateRip summary

Track 1 accurately ripped (confidence 6) [B417B2EE] (AR v1)Track 2 accurately ripped (confidence 5) [4378BA23] (AR v1)Track 3 accurately ripped (confidence 5) [4EEE20F3] (AR v1)Track 4 accurately ripped (confidence 5) [17DCE920] (AR v1)Track 5 accurately ripped (confidence 5) [9A28A3A1] (AR v1)Track 6 accurately ripped (confidence 5) [4F781956] (AR v1)Track 7 accurately ripped (confidence 5) [7FA0116C] (AR v1)Track 8 accurately ripped (confidence 5) [13CAFCA3] (AR v1)Track 9 accurately ripped (confidence 5) [1B136422] (AR v1)Track 10 accurately ripped (confidence 5) [00CE4CB5] (AR v1)Track 11 accurately ripped (confidence 5) [2E86A139] (AR v1)Track 12 accurately ripped (confidence 5) [33D98F4F] (AR v1)Track 13 accurately ripped (confidence 5) [F58A9E72] (AR v1)Track 14 accurately ripped (confidence 5) [B8BB0FB7] (AR v1)Track 15 accurately ripped (confidence 5) [8262B2BB] (AR v1)Track 16 accurately ripped (confidence 5) [283EC924] (AR v1)Track 17 accurately ripped (confidence 5) [09248198] (AR v1)Track 18 accurately ripped (confidence 5) [A87A0866] (AR v1)Track 19 accurately ripped (confidence 5) [1037069F] (AR v1)Track 20 accurately ripped (confidence 5) [FAA882E3] (AR v1)

All tracks accurately ripped

End of status report

==== Log checksum E5CE5C690947211372CFA0E6B1AC627AFDC31EB15A51F54CFBC062AFC27E0FE1 ====
Exact Audio Copy V1.0 beta 3 from 29. August 2011

EAC extraction logfile from 9. December 2012, 14:39

Shocking Blue / At Home (Disc 2) [66.195]

Used drive : PLEXTOR DVDR PX-891SA Adapter: 1 ID: 0

Read mode : SecureUtilize accurate stream : YesDefeat audio cache : YesMake use of C2 pointers : No

Read offset correction : 6Overread into Lead-In and Lead-Out : NoFill up missing offset samples with silence : YesDelete leading and trailing silent blocks : NoNull samples used in CRC calculations : YesUsed interface : Native Win32 interface for Win NT & 2000

Used output format : User Defined EncoderSelected bitrate : 1024 kBit/sQuality : HighAdd ID3 tag : NoCommand line compressor : C:\Program Files\Exact Audio Copy\Flac\flac.exeAdditional command line options : -V -8 -T "Genre=%genre%" -T "Artist=%artist%" -T "Title=%title%" -T "Album=%albumtitle%" -T "Date=%year%" -T "Tracknumber=%tracknr%" -T "Comment=%comment%" %source%

TOC of the extracted CD

Track | Start | Length | Start sector | End sector --------------------------------------------------------- 1 | 0:00.00 | 2:41.60 | 0 | 12134 2 | 2:41.60 | 2:58.35 | 12135 | 25519 3 | 5:40.20 | 3:07.47 | 25520 | 39591 4 | 8:47.67 | 3:20.65 | 39592 | 54656 5 | 12:08.57 | 3:02.45 | 54657 | 68351 6 | 15:11.27 | 3:07.40 | 68352 | 82416 7 | 18:18.67 | 3:16.35 | 82417 | 97151 8 | 21:35.27 | 2:28.08 | 97152 | 108259 9 | 24:03.35 | 2:49.40 | 108260 | 120974 10 | 26:53.00 | 3:45.40 | 120975 | 137889 11 | 30:38.40 | 4:04.15 | 137890 | 156204 12 | 34:42.55 | 2:40.30 | 156205 | 168234 13 | 37:23.10 | 3:02.30 | 168235 | 181914 14 | 40:25.40 | 2:36.55 | 181915 | 193669 15 | 43:02.20 | 2:13.47 | 193670 | 203691

Range status and errors

Selected range

Filename H:\dafnaplus\Shocking Blue - Very Best of Collected\At Home (Disc 2)\Shocking Blue - At Home (Disc 2) [66.195].wav

Peak level 99.9 % Extraction speed 7.4 X Range quality 100.0 % Test CRC 17B0D094 Copy CRC 17B0D094 Copy OK

No errors occurred

AccurateRip summary

Track 1 accurately ripped (confidence 4) [2C41087F] (AR v1)Track 2 accurately ripped (confidence 4) [55BA3AB4] (AR v1)Track 3 accurately ripped (confidence 4) [7EAAB5F0] (AR v1)Track 4 accurately ripped (confidence 4) [20D243F2] (AR v1)Track 5 accurately ripped (confidence 4) [21EBB2AC] (AR v1)Track 6 accurately ripped (confidence 4) [5140572C] (AR v1)Track 7 accurately ripped (confidence 4) [9FC3A985] (AR v1)Track 8 accurately ripped (confidence 4) [9AF61130] (AR v1)Track 9 accurately ripped (confidence 4) [94A9234B] (AR v1)Track 10 accurately ripped (confidence 4) [031CAFDC] (AR v1)Track 11 accurately ripped (confidence 4) [FBFF225A] (AR v1)Track 12 accurately ripped (confidence 4) [79805EFE] (AR v1)Track 13 accurately ripped (confidence 4) [65BB2BF9] (AR v1)Track 14 accurately ripped (confidence 4) [23CB402D] (AR v1)Track 15 accurately ripped (confidence 2) [EDD85B53] (AR v1)

All tracks accurately ripped

End of status report

==== Log checksum 25594FD2F04DB933DE600B216E02A47ECD82E230FB079F24B0AAE71EA13FEBF8 ====


Трекер:  [ 10-Дек-2012 06:35 ]

  

Скачать .torrent

Размер .torrent файла 22 KB


Размер: 1023 MB
Хэш (hash) релиза: 8121abe2682d1b5a074a8355fcdf18fe899e8059

Еще никто не оставлял запись к записи скачать торрент Shocking Blue - Very Best of Collected . Будь первым!

!Обратная связь