Скачать через торрент музыку Little Caesar - Amercian Dream - 2012, FLAC бесплатно без регистрации torrent

Если у вас наблюдаются проблемы со скриншотами, переходом по ссылками, скачиванием торрентов - проблемы в блокировщике рекламы AdBlock. #хорошегоДня!


Статистика раздачи
Размер:  383 MB   |    Зарегистрирован:  4 года 10 месяцев   |    .torrent скачан:  11 раз   |   
Раздают:  1  
   
Загрузка...
 
Автор Сообщение

Galfimbul

avatar Galfimbul


Little Caesar / Amercian Dream

Жанр: Hard-Rock/Southern-Rock/Blues-Rock
Страна-производитель диска: Russia
Год издания: 2012
Издатель (лейбл): Пирато & Бандито
Страна: USA
Аудиокодек: FLAC (*.flac)
Тип рипа: image+.cue
Битрейт аудио: lossless
Продолжительность: 43'44''
Источник (релизер): Blueshouse Disc & Rip
Наличие сканов в содержимом раздачи: да
Треклист:
CD: Little Caesar - Amercian Dream

01. Holy Roller [0:02:46.71]
02. American Dream [0:03:21.22]
03. Hard Rock Hell [0:04:32.33]
04. Prisoner Of Love [0:05:04.05]
05. In My Mirror [0:03:34.48]
06. Only A Memory Away [0:04:47.19]
07. The Girl's Rockin' [0:03:52.03]
08. Is Your Crazy Gettin' Lady [0:03:36.35]
09. Own Worst Enemy [0:04:46.50]
10. Drama Queen [0:03:32.00]
11. Dirty Water [0:03:48.69]
Exact Audio Copy V1.0 beta 3 from 29. August 2011

Отчёт EAC об извлечении, выполненном 4. декабря 2012, 22:26

Little Caesar / Amercian Dream

Дисковод: PLEXTOR DVDR PX-750A Adapter: 1 ID: 1

Режим чтения : ДостоверностьИспользование точного потока : ДаОтключение кэша аудио : ДаИспользование указателей C2 : Нет

Коррекция смещения при чтении : 102Способность читать области Lead-in и Lead-out : НетЗаполнение пропущенных сэмплов тишиной : ДаУдаление блоков с тишиной в начале и конце : НетПри вычислениях CRC использовались нулевые сэмплы : ДаИнтерфейс : Встроенный Win32-интерфейс для Win NT/2000

Выходной формат : Пользовательский кодировщикВыбранный битрейт : 896 kBit/sКачество : ВысокийДобавление ID3-тега : ДаУтилита сжатия : C:\Program Files\Exact Audio Copy\FLAC\FLAC.EXEДополнительные параметры : -6 -V -T "ARTIST=%artist%" -T "TITLE=%title%" -T "ALBUM=%albumtitle%" -T "DATE=%year%" -T "TRACKNUMBER=%tracknr%" -T "GENRE=%genre%" -T "COMMENT=%comment%" -T "BAND=%albuminterpret%" -T "ALBUMARTIST=%albuminterpret%" -T "COMPOSER=%composer%" %haslyrics%--tag-from-file=LYRICS="%lyricsfile%"%haslyrics% -T "DISCNUMBER=%cdnumber%" -T "TOTALDISCS=%totalcds%" -T "TOTALTRACKS=%numtracks%" %hascover%--picture="%coverfile%"%hascover% %source% -o %dest%

TOC извлечённого CD

Трек | Старт | Длительность | Начальный сектор | Конечный сектор --------------------------------------------------------------------- 1 | 0:00.00 | 2:46.71 | 0 | 12520 2 | 2:46.71 | 3:21.22 | 12521 | 27617 3 | 6:08.18 | 4:32.33 | 27618 | 48050 4 | 10:40.51 | 5:04.05 | 48051 | 70855 5 | 15:44.56 | 3:34.48 | 70856 | 86953 6 | 19:19.29 | 4:47.19 | 86954 | 108497 7 | 24:06.48 | 3:52.03 | 108498 | 125900 8 | 27:58.51 | 3:36.35 | 125901 | 142135 9 | 31:35.11 | 4:46.50 | 142136 | 163635 10 | 36:21.61 | 3:32.00 | 163636 | 179535 11 | 39:53.61 | 3:48.69 | 179536 | 196704

Характеристики диапазона извлечения и сообщения об ошибках

Выбранный диапазон

Имя файла C:\Documents and Settings\Admin\Рабочий стол\Little Caesar - Amercian Dream - 2012 - 43'44''\Little Caesar - Amercian Dream.wav

Пиковый уровень 98.8 % Скорость извлечения 7.1 X Качество диапазона 100.0 % CRC теста 1BB57CC9 CRC копии 1BB57CC9 Копирование... OK

Ошибок не произошло

Конец отчёта

==== Контрольная сумма отчёта 7CE3249649F34B6AD24B35BDADFE703B8CB990032B122C461C99D861542D5EE7 ====
-----------------------

DON'T MODIFY THIS FILE

-----------------------

PERFORMER: auCDtect Task Manager, ver. 1.5.1RC4 build 1.5.1.5Copyright (c) 2008-2010 y-soft. All rights reservedhttp://y-soft.org

ANALYZER: auCDtect: CD records authenticity detector, version 0.8.2Copyright (c) 2004 Oleg Berngardt. All rights reserved.Copyright (c) 2004 Alexander Djourik. All rights reserved.

FILE: Little Caesar - Amercian Dream.flac Size: 327028994 Hash: B3A634DEAC4FC49F2FD7AE3BA69F6FD2 Accuracy: -m0 Conclusion: CDDA 100% Signature: 44923299B6FC636825B964C8D347C1BF613C4BDC
Доп. информация: Маленький Цезарь - не новички в южном хард-роке (чуть более 30и лет), но альбомы стали выходить с начала 90х, и это 5й альбом группы...
(если верить их дискографии)
Ron Young - Vocals
Joey Brasler - Guitar
Loren Molinare - Guitar
Fidel Paniagua - Bass
Tom Morris - Drums


Трекер:  [ 10-Дек-2012 06:35 ]

  

Скачать .torrent

Размер .torrent файла 16 KB


Размер: 383 MB
Хэш (hash) релиза: beaf8de957a81e4d01261489194241a69bfc9e08

Еще никто не оставлял запись к записи скачать торрент Little Caesar - Amercian Dream - 2012, FLAC . Будь первым!

!Обратная связь