Скачать через торрент музыку Dave Mason бесплатно без регистрации torrent

Если у вас наблюдаются проблемы со скриншотами, переходом по ссылками, скачиванием торрентов - проблемы в блокировщике рекламы AdBlock. #хорошегоДня!


Статистика раздачи
Размер:  644 MB   |    Зарегистрирован:  4 года 8 месяцев   |    .torrent скачан:  6 раз   |   
Раздают:  1  
   
Загрузка...
 
Автор Сообщение

Galfimbul

avatar Galfimbul


Dave Mason - It's Like You Never Left

Жанр: singer-songwriter, rock, classic rock
Страна-производитель диска: Germany
Год издания: 2005
Издатель (лейбл): Repertoire Records
Номер по каталогу: RES 2320
Страна: UK
Аудиокодек: FLAC (*.flac)
Тип рипа: image+.cue
Битрейт аудио: lossless
Продолжительность: 34:52
Наличие сканов в содержимом раздачи: Hi-Res, Low-Res
Рип выполнен с фирменного диска из личной коллекции, Secure mode, Accurate stream, Test & Copy
1. Baby... Please (3:15)
2. Every Woman (1:40)
3. If You've Got Love (3:24)
4. Maybe (4:03)
5. Head Keeper (3:36)
6. Misty Morning Stranger (4:32)
7. Silent Partner (3:03)
8. Side Tracked (3:34)
9. Lonely One (4:43)
10. It's Like You Never Left (3:03)
X Lossless Decoder version 20091129 (114.3)

XLD extraction logfile from 2012-12-09 14:02:03 +0000

Dave Mason / It's Like You Never Left

Used drive : PIONEER DVD-RW DVR-218L (revision 1.02)

Use cdparanoia mode : YES (CDParanoia III 10.2 engine)Disable audio cache : OK for the drive with cache less than 2750KBMake use of C2 pointers : NORead offset correction : 6Max retry count : 100

TOC of the extracted CD Track | Start | Length | Start sector | End sector --------------------------------------------------------- 1 | 00:00:00 | 03:15:34 | 0 | 14658 2 | 03:15:34 | 01:39:70 | 14659 | 22153 3 | 04:55:29 | 03:23:62 | 22154 | 37440 4 | 08:19:16 | 04:02:62 | 37441 | 55652 5 | 12:22:03 | 03:35:52 | 55653 | 71829 6 | 15:57:55 | 04:31:48 | 71830 | 92202 7 | 20:29:28 | 03:02:74 | 92203 | 105926 8 | 23:32:27 | 03:34:15 | 105927 | 121991 9 | 27:06:42 | 04:42:64 | 121992 | 143205 10 | 31:49:31 | 03:03:00 | 143206 | 156930

All Tracks Filename : /Volumes/DATA/Music/03 - Dave Mason - It's Like You Never Left - 1973 (2005 Repertoire Records RES 2320)/It's Like You Never Left.flac CRC32 hash (test run) : B899D386 CRC32 hash : B899D386 CRC32 hash (skip zero) : 823147B8 Statistics Read error : 0 Skipped (treated as error) : 0 Edge jitter error (maybe fixed) : 0 Atom jitter error (maybe fixed) : 0 Drift error (maybe fixed) : 0 Dropped bytes error (maybe fixed) : 0 Duplicated bytes error (maybe fixed) : 0 Inconsistency in error sectors : 0

Track 01 CRC32 hash (test run) : BBAA09D1 CRC32 hash : BBAA09D1 CRC32 hash (skip zero) : 3A84E558 AccurateRip signature : E25DC6D9 ->Accurately ripped! (confidence 4) Statistics Read error : 0 Skipped (treated as error) : 0 Edge jitter error (maybe fixed) : 0 Atom jitter error (maybe fixed) : 0 Drift error (maybe fixed) : 0 Dropped bytes error (maybe fixed) : 0 Duplicated bytes error (maybe fixed) : 0 Inconsistency in error sectors : 0

Track 02 CRC32 hash (test run) : C105A9E2 CRC32 hash : C105A9E2 CRC32 hash (skip zero) : 68167305 AccurateRip signature : 6F94F847 ->Accurately ripped! (confidence 4) Statistics Read error : 0 Skipped (treated as error) : 0 Edge jitter error (maybe fixed) : 0 Atom jitter error (maybe fixed) : 0 Drift error (maybe fixed) : 0 Dropped bytes error (maybe fixed) : 0 Duplicated bytes error (maybe fixed) : 0 Inconsistency in error sectors : 0

Track 03 CRC32 hash (test run) : B39C1D92 CRC32 hash : B39C1D92 CRC32 hash (skip zero) : 102210A4 AccurateRip signature : 94C6FE30 ->Accurately ripped! (confidence 4) Statistics Read error : 0 Skipped (treated as error) : 0 Edge jitter error (maybe fixed) : 0 Atom jitter error (maybe fixed) : 0 Drift error (maybe fixed) : 0 Dropped bytes error (maybe fixed) : 0 Duplicated bytes error (maybe fixed) : 0 Inconsistency in error sectors : 0

Track 04 CRC32 hash (test run) : 3995A542 CRC32 hash : 3995A542 CRC32 hash (skip zero) : 243945E1 AccurateRip signature : 8F1BE569 ->Accurately ripped! (confidence 4) Statistics Read error : 0 Skipped (treated as error) : 0 Edge jitter error (maybe fixed) : 0 Atom jitter error (maybe fixed) : 0 Drift error (maybe fixed) : 0 Dropped bytes error (maybe fixed) : 0 Duplicated bytes error (maybe fixed) : 0 Inconsistency in error sectors : 0

Track 05 CRC32 hash (test run) : FC968B8F CRC32 hash : FC968B8F CRC32 hash (skip zero) : C4DA29B2 AccurateRip signature : DE88C382 ->Accurately ripped! (confidence 4) Statistics Read error : 0 Skipped (treated as error) : 0 Edge jitter error (maybe fixed) : 0 Atom jitter error (maybe fixed) : 0 Drift error (maybe fixed) : 0 Dropped bytes error (maybe fixed) : 0 Duplicated bytes error (maybe fixed) : 0 Inconsistency in error sectors : 0

Track 06 CRC32 hash (test run) : 4006ABC2 CRC32 hash : 4006ABC2 CRC32 hash (skip zero) : 2B50B6F1 AccurateRip signature : 6C5E6E39 ->Accurately ripped! (confidence 4) Statistics Read error : 0 Skipped (treated as error) : 0 Edge jitter error (maybe fixed) : 0 Atom jitter error (maybe fixed) : 0 Drift error (maybe fixed) : 0 Dropped bytes error (maybe fixed) : 0 Duplicated bytes error (maybe fixed) : 0 Inconsistency in error sectors : 0

Track 07 CRC32 hash (test run) : E7249D9D CRC32 hash : E7249D9D CRC32 hash (skip zero) : 91C0628F AccurateRip signature : A7D31673 ->Accurately ripped! (confidence 4) Statistics Read error : 0 Skipped (treated as error) : 0 Edge jitter error (maybe fixed) : 0 Atom jitter error (maybe fixed) : 0 Drift error (maybe fixed) : 0 Dropped bytes error (maybe fixed) : 0 Duplicated bytes error (maybe fixed) : 0 Inconsistency in error sectors : 0

Track 08 CRC32 hash (test run) : 6ADE9CD7 CRC32 hash : 6ADE9CD7 CRC32 hash (skip zero) : 813EFA58 AccurateRip signature : 1654440C ->Accurately ripped! (confidence 4) Statistics Read error : 0 Skipped (treated as error) : 0 Edge jitter error (maybe fixed) : 0 Atom jitter error (maybe fixed) : 0 Drift error (maybe fixed) : 0 Dropped bytes error (maybe fixed) : 0 Duplicated bytes error (maybe fixed) : 0 Inconsistency in error sectors : 0

Track 09 CRC32 hash (test run) : D515534E CRC32 hash : D515534E CRC32 hash (skip zero) : EA0A0EE5 AccurateRip signature : F4F5FF1D ->Accurately ripped! (confidence 4) Statistics Read error : 0 Skipped (treated as error) : 0 Edge jitter error (maybe fixed) : 0 Atom jitter error (maybe fixed) : 0 Drift error (maybe fixed) : 0 Dropped bytes error (maybe fixed) : 0 Duplicated bytes error (maybe fixed) : 0 Inconsistency in error sectors : 0

Track 10 CRC32 hash (test run) : E5063DD9 CRC32 hash : E5063DD9 CRC32 hash (skip zero) : 7CC17264 AccurateRip signature : 427A2D72 ->Accurately ripped! (confidence 4) Statistics Read error : 0 Skipped (treated as error) : 0 Edge jitter error (maybe fixed) : 0 Atom jitter error (maybe fixed) : 0 Drift error (maybe fixed) : 0 Dropped bytes error (maybe fixed) : 0 Duplicated bytes error (maybe fixed) : 0 Inconsistency in error sectors : 0

No errors occurred

End of status report
TITLE "It's Like You Never Left"PERFORMER "Dave Mason"REM GENRE "Rock"REM DATE 1973FILE "It's Like You Never Left.flac" WAVE TRACK 01 AUDIO TITLE "Baby...Please" INDEX 01 00:00:00 TRACK 02 AUDIO TITLE "Every Woman" INDEX 00 03:14:44 INDEX 01 03:15:34 TRACK 03 AUDIO TITLE "If You've Got Love" INDEX 00 04:54:60 INDEX 01 04:55:29 TRACK 04 AUDIO TITLE "Maybe" INDEX 00 08:18:33 INDEX 01 08:19:16 TRACK 05 AUDIO TITLE "Head Keeper" INDEX 00 12:21:02 INDEX 01 12:22:03 TRACK 06 AUDIO TITLE "Misty Morning Stranger" INDEX 00 15:55:71 INDEX 01 15:57:55 TRACK 07 AUDIO TITLE "Silent Partner" INDEX 00 20:27:44 INDEX 01 20:29:28 TRACK 08 AUDIO TITLE "Side Tracked" INDEX 00 23:31:26 INDEX 01 23:32:27 TRACK 09 AUDIO TITLE "The Lonely One" INDEX 00 27:04:58 INDEX 01 27:06:42 TRACK 10 AUDIO TITLE "It's Like You Never Left" INDEX 00 31:47:47 INDEX 01 31:49:31
Dave Mason - guitars, vocals
Graham Nash - vocals
Carl Radle - bass
Jim Keltner - drums
Stevie Wonder - harmonica on "Lonely One"
Greg Reeves - bass
Rich Jaeger - drums
Mark Jordan - piano
Lonnie Turner - bass
Chuck Rainey - bass
Maxine Willard, Clydie King, Julia Tillman, Kathleen Saroyan - backing vocals
Steve Madaio, Dennis Morouse, Norma Bell - horns



Трекер:  [ 10-Дек-2012 06:35 ]

  

Скачать .torrent

Размер .torrent файла 14 KB


Размер: 644 MB
Хэш (hash) релиза: b5081bf508cfd02ab2a2e6e4254ff7ee09d5401b

Торренты, похожие на Dave Mason скачать торрент

Форум Название Автор Размер S L Добавлен
Зарубежный Rock ·· (rock, folk-rock) Dave Mason - Dave Mason & Cass Elliott - 1971, FLAC (tracks+.cue), lossless Galfimbul 498186634475 MB 0 0 1355110500

06:35

10-Дек-12

Rосk | Mеtаl | Аltеrnаtivе, Рunk, Indереndеnt (mр3) ·· (Classic Rock / Soft Rock) Jim Capaldi (with Dave Mason) - Дискография (18 релизов) - 1972-2011, MP3, 192-320 kbps Galfimbul 30525346002.84 GB 0 0 1462051181

00:19

1-Май-16

Rосk | Mеtаl | Аltеrnаtivе, Рunk, Indереndеnt (losslеss) ·· (Classic Rock, Blues Rock) Dave Mason - Alone Together & Headkeeper (2005 BGO Remaster) - 1970, 1972, FLAC (tracks+.cue), lossless Galfimbul 471063138449 MB 0 0 1374676373

17:32

24-Июл-13

Rосk | Mеtаl | Аltеrnаtivе, Рunk, Indереndеnt (mр3) ·· (Pop/Rock/Folk) Cass Elliot (Mama Cass) (& Dave Mason) - Solo Discography - 1968-2005 (12 albums), MP3 (tracks), 192-320 kbps _N_ 10523105761004 MB 0 0 1365000173

17:42

3-Апр-13

Rосk | Mеtаl | Аltеrnаtivе, Рunk, Indереndеnt (losslеss) ·· (singer-songwriter, rock, classic rock) Dave Mason - Alone Together - 1970 (2010 Geffen Records, Japan SHM-CD), FLAC (image+.cue), lossless Galfimbul 521559039497 MB 0 0 1364395608

17:46

27-Мар-13

Rосk | Mеtаl | Аltеrnаtivе, Рunk, Indереndеnt (mр3) ·· (Classic Rock & Hard Rock) Dave Mason - Collection (1970-2009), 24 альбома, MP3 (tracks), VBR 180-319/ CBR 320 kbps Galfimbul 25384496352.36 GB 0 0 1363012819

17:40

11-Мар-13

Еще никто не оставлял запись к записи скачать торрент Dave Mason . Будь первым!

!Обратная связь