Скачать через торрент музыку T. Rex - Electric Warrior бесплатно без регистрации torrent

Если у вас наблюдаются проблемы со скриншотами, переходом по ссылками, скачиванием торрентов - проблемы в блокировщике рекламы AdBlock. #хорошегоДня!


Статистика раздачи
Размер:  580 MB   |    Зарегистрирован:  4 года 11 месяцев   |    .torrent скачан:  15 раз   |   
Раздают:  1  
   
Загрузка...
 
Автор Сообщение

Galfimbul

avatar Galfimbul


T. Rex - Electric Warrior Жанр: Rock
Страна-производитель диска: USA
Год издания диска: 2012
Издатель (лейбл): Reprise
Номер по каталогу: R2 6466
Страна: UK
Аудио кодек: FLAC
Тип рипа: image+.cue
Битрейт аудио: lossless
Продолжительность: 39:43
Источник (релизер): dafnaplus
Наличие сканов в содержимом раздачи: да
Трэклист:
01. Mambo Sun 3:42
02. Cosmic Dancer 4:30
03. Jeepster 4:13
04. Monolith 3:50
05. Lean Woman Blues 3:05
06. Bang a Gong (Get it on) 4:27
07. Planet Queen 3:14
08. Girl 2:33
09. The Motivator 4:01
10. Life's a Gas 2:26
11. Rip Off 3:42
Exact Audio Copy V1.0 beta 3 from 29. August 2011

EAC extraction logfile from 9. December 2012, 17:47

T. Rex / Electric Warrior (R2 6466)

Used drive : PLEXTOR DVDR PX-891SA Adapter: 1 ID: 0

Read mode : SecureUtilize accurate stream : YesDefeat audio cache : YesMake use of C2 pointers : No

Read offset correction : 6Overread into Lead-In and Lead-Out : NoFill up missing offset samples with silence : YesDelete leading and trailing silent blocks : NoNull samples used in CRC calculations : YesUsed interface : Native Win32 interface for Win NT & 2000

Used output format : User Defined EncoderSelected bitrate : 1024 kBit/sQuality : HighAdd ID3 tag : NoCommand line compressor : C:\Program Files\Exact Audio Copy\Flac\flac.exeAdditional command line options : -V -8 -T "Genre=%genre%" -T "Artist=%artist%" -T "Title=%title%" -T "Album=%albumtitle%" -T "Date=%year%" -T "Tracknumber=%tracknr%" -T "Comment=%comment%" %source%

TOC of the extracted CD

Track | Start | Length | Start sector | End sector --------------------------------------------------------- 1 | 0:00.00 | 3:41.41 | 0 | 16615 2 | 3:41.41 | 4:30.17 | 16616 | 36882 3 | 8:11.58 | 4:13.15 | 36883 | 55872 4 | 12:24.73 | 3:49.57 | 55873 | 73104 5 | 16:14.55 | 3:04.53 | 73105 | 86957 6 | 19:19.33 | 4:26.61 | 86958 | 106968 7 | 23:46.19 | 3:14.03 | 106969 | 121521 8 | 27:00.22 | 2:32.65 | 121522 | 132986 9 | 29:33.12 | 4:01.37 | 132987 | 151098 10 | 33:34.49 | 2:26.27 | 151099 | 162075 11 | 36:01.01 | 3:41.56 | 162076 | 178706

Range status and errors

Selected range

Filename H:\dafnaplus\T. Rex - Electric Warrior\T. Rex - Electric Warrior (R2 6466).wav

Peak level 96.8 % Extraction speed 7.6 X Range quality 99.9 % Test CRC 3DA230B8 Copy CRC 3DA230B8 Copy OK

No errors occurred

AccurateRip summary

Track 1 accurately ripped (confidence 3) [C5347CDF] (AR v1)Track 2 accurately ripped (confidence 3) [66A8845F] (AR v1)Track 3 accurately ripped (confidence 3) [03D52A57] (AR v1)Track 4 accurately ripped (confidence 3) [37B48A7B] (AR v1)Track 5 accurately ripped (confidence 3) [76E9764D] (AR v1)Track 6 accurately ripped (confidence 3) [5513BA29] (AR v1)Track 7 accurately ripped (confidence 3) [7CA73555] (AR v1)Track 8 accurately ripped (confidence 3) [D3228089] (AR v1)Track 9 accurately ripped (confidence 3) [78385E26] (AR v1)Track 10 accurately ripped (confidence 3) [B1529050] (AR v1)Track 11 accurately ripped (confidence 3) [FB257FDA] (AR v1)

All tracks accurately ripped

End of status report

==== Log checksum 07A6989A132ED8535C01371A8252120BBCB5C91C9B75ED60444CF595114574EE ====


Трекер:  [ 10-Дек-2012 06:35 ]

  

Скачать .torrent

Размер .torrent файла 12 KB


Размер: 580 MB
Хэш (hash) релиза: 675fb5e549f25ea97af2b910b657bfa8b64b50d0

Еще никто не оставлял запись к записи скачать торрент T. Rex - Electric Warrior . Будь первым!

!Обратная связь