..."/> ...">

Скачать через торрент музыку Ministry Of Sound - "Men From The Ministry" "Midsummer Nights Dreaming" бесплатно без регистрации torrent

Если у вас наблюдаются проблемы со скриншотами, переходом по ссылками, скачиванием торрентов - проблемы в блокировщике рекламы AdBlock. #хорошегоДня!


Статистика раздачи
Размер:  493 MB   |    Зарегистрирован:  4 года 8 месяцев   |    .torrent скачан:  8 раз   |   
Раздают:  1  
   
Загрузка...
 
Автор Сообщение

Galfimbul

avatar Galfimbul


Ministry Of Sound / "Men From The Ministry" / "Midsummer Nights Dreaming" (1966-1968)

Жанр: Pop-Psychedelic, Beat
Страна-производитель диска: UK
Год издания: 2005
Издатель (лейбл): RPM
Номер по каталогу: RPM D 297
Страна: UK
Аудиокодек: FLAC (*.flac)
Тип рипа: image+.cue
Битрейт аудио: lossless
Продолжительность: 46:30 + 50:10
Источник (релизер): CD
Наличие сканов в содержимом раздачи: да
Треклист:
CD1 - "Men From The Ministry" 1966
1. Mary Mary
2. Someone Like You
3. I'm Coming Home
4. Something Very Good
5. Goodbye To Rosalie
6. Sunday In The Park
7. Hey Girl (No Need To Push)
8. Something You've Got
9. Ooh La La
10. I Couldn't Spend Another Day
11. Three In The Morning
12. Angels Get Out Of Bed
bonus tracks
13. Big Top Heart
14. Get Outta My Way
15. Love Equals Love
16. Memory
17. Turn Around

CD2 - "Midsummer Nights Dreaming" 1968
1. White Collar Worker
2. Throw The Thing Away
3. Back Seat Driver
4. Rain Rain Rain
5. In The Sky
6. Sequin Sally
7. Laughing Man
8. Going Round And Round
9. Time And Motion Man
10. Little Ray Of Sunshine
11. Magic People
12. Midsummer Dreaming
bonus tracks
13. Life Is Living
14. Marjorie Morningstar
15. Roberto Billow
16. Mr. Light
17. When I Was Born
18. Rain Rain Rain (alternative version)
Exact Audio Copy V1.0 beta 3 from 29. August 2011

Отчёт EAC об извлечении, выполненном 8. декабря 2012, 16:58

Ministry Of Sound / Men From The Ministry

Дисковод: TSSTcorpCDDVDW TS-L633C Adapter: 1 ID: 0

Режим чтения : Достоверность
Использование точного потока : Да
Отключение кэша аудио : Да
Использование указателей C2 : Нет

Коррекция смещения при чтении : 6
Способность читать области Lead-in и Lead-out : Нет
Заполнение пропущенных сэмплов тишиной : Да
Удаление блоков с тишиной в начале и конце : Нет
При вычислениях CRC использовались нулевые сэмплы : Да
Интерфейс : Встроенный Win32-интерфейс для Win NT/2000

Выходной формат : Пользовательский кодировщик
Выбранный битрейт : 128 kBit/s
Качество : Высокий
Добавление ID3-тега : Нет
Утилита сжатия : C:\Program Files (x86)\Exact Audio Copy\Flac\flac.exe
Дополнительные параметры : -V -8 -T "Date=%year%" -T "Genre=%genre%" %source%

TOC извлечённого CD

Трек | Старт | Длительность | Начальный сектор | Конечный сектор
---------------------------------------------------------------------
1 | 0:00.00 | 2:34.53 | 0 | 11602
2 | 2:34.53 | 2:26.54 | 11603 | 22606
3 | 5:01.32 | 3:15.63 | 22607 | 37294
4 | 8:17.20 | 2:27.00 | 37295 | 48319
5 | 10:44.20 | 2:33.34 | 48320 | 59828
6 | 13:17.54 | 3:41.13 | 59829 | 76416
7 | 16:58.67 | 2:49.53 | 76417 | 89144
8 | 19:48.45 | 3:03.48 | 89145 | 102917
9 | 22:52.18 | 2:33.56 | 102918 | 114448
10 | 25:25.74 | 2:36.65 | 114449 | 126213
11 | 28:02.64 | 2:12.67 | 126214 | 136180
12 | 30:15.56 | 2:46.48 | 136181 | 148678
13 | 33:02.29 | 2:37.39 | 148679 | 160492
14 | 35:39.68 | 2:15.49 | 160493 | 170666
15 | 37:55.42 | 2:47.36 | 170667 | 183227
16 | 40:43.03 | 1:57.02 | 183228 | 192004
17 | 42:40.05 | 3:48.02 | 192005 | 209106

Характеристики диапазона извлечения и сообщения об ошибках

Выбранный диапазон

Имя файла C:\Ministry Of Sound\Ministry Of Sound - Men From The Ministry.wav

Пиковый уровень 96.6 %
Скорость извлечения 3.5 X
Качество диапазона 100.0 %
CRC теста 8FF918EF
CRC копии 8FF918EF
Копирование... OK

Ошибок не произошло

Конец отчёта

==== Контрольная сумма отчёта 18A4917E16BE6213F8D28E783EFE28145E9CBDBAA8A56EC849AF88C68D061A98 ====
Exact Audio Copy V1.0 beta 3 from 29. August 2011

Отчёт EAC об извлечении, выполненном 8. декабря 2012, 19:36

Ministry Of Sound / Midsummer Nights Dreaming

Дисковод: TSSTcorpCDDVDW TS-L633C Adapter: 1 ID: 0

Режим чтения : Достоверность
Использование точного потока : Да
Отключение кэша аудио : Да
Использование указателей C2 : Нет

Коррекция смещения при чтении : 6
Способность читать области Lead-in и Lead-out : Нет
Заполнение пропущенных сэмплов тишиной : Да
Удаление блоков с тишиной в начале и конце : Нет
При вычислениях CRC использовались нулевые сэмплы : Да
Интерфейс : Встроенный Win32-интерфейс для Win NT/2000

Выходной формат : Пользовательский кодировщик
Выбранный битрейт : 128 kBit/s
Качество : Высокий
Добавление ID3-тега : Нет
Утилита сжатия : C:\Program Files (x86)\Exact Audio Copy\Flac\flac.exe
Дополнительные параметры : -V -8 -T "Date=%year%" -T "Genre=%genre%" %source%

TOC извлечённого CD

Трек | Старт | Длительность | Начальный сектор | Конечный сектор
---------------------------------------------------------------------
1 | 0:00.00 | 3:22.32 | 0 | 15181
2 | 3:22.32 | 1:40.07 | 15182 | 22688
3 | 5:02.39 | 2:25.52 | 22689 | 33615
4 | 7:28.16 | 2:37.27 | 33616 | 45417
5 | 10:05.43 | 2:24.68 | 45418 | 56285
6 | 12:30.36 | 3:27.03 | 56286 | 71813
7 | 15:57.39 | 3:25.13 | 71814 | 87201
8 | 19:22.52 | 3:38.45 | 87202 | 103596
9 | 23:01.22 | 2:41.09 | 103597 | 115680
10 | 25:42.31 | 3:04.64 | 115681 | 129544
11 | 28:47.20 | 2:05.73 | 129545 | 138992
12 | 30:53.18 | 2:46.01 | 138993 | 151443
13 | 33:39.19 | 3:08.02 | 151444 | 165545
14 | 36:47.21 | 2:00.44 | 165546 | 174589
15 | 38:47.65 | 3:11.01 | 174590 | 188915
16 | 41:58.66 | 2:32.08 | 188916 | 200323
17 | 44:30.74 | 2:53.56 | 200324 | 213354
18 | 47:24.55 | 2:43.71 | 213355 | 225650

Характеристики диапазона извлечения и сообщения об ошибках

Выбранный диапазон

Имя файла C:\Ministry Of Sound\Ministry Of Sound - Midsummer Nights Dreaming.wav

Пиковый уровень 96.6 %
Скорость извлечения 3.6 X
Качество диапазона 100.0 %
CRC теста BE05600B
CRC копии BE05600B
Копирование... OK

Ошибок не произошло

Конец отчёта

==== Контрольная сумма отчёта AD1C9453282606BDBDFF2398EC32F8D984EA8B6425365E29D6D576B06B176B7D ====
Одна из многочисленных групп композитора и певца Джона Картера ("Carter-Lewis & The Southerners", "Ivy League", "Flowerpot Men", "Haystack", "Dawn Chorus", "Stamford Bridge", "Kincade", "First Class", etc.). На этот раз чисто студийный проект, который он вел одновременно с "Ivy League" и "Flowerpot Men". В группу вошли композитор и певец Russ Alquist ("Carter-Lewis & The Southerners"), композитор, певец и бас-гитарист Robin Shaw ("Mick Everly & The Prophets", "Pete Nelson And The Travellers"), гитарист Micky Keen ("Mick Everly & The Prophets", "Carter-Lewis & The Southerners", "Ivy League", "Flowerpot Men") и ударник Clem Cattini ("Ivy League").
На самом деле дискография группы включает всего два сингла, "White Collar Worker / Back Seat Driver" Decca 1966 (как "Ministry Of Sound") и "The Laughing Man / Midsummer Dreaming" Spark 1968 (как "John Carter & Russ Alquist"). Все остальное - неизданный материал, записанный в период 1966-1968 годов. Но веселые ребята из RPM составили из этого два "альбома", якобы выходившие в 1966 и в 1968 годах, придумали к "альбомам" обложки, добавили "бонусы", и даже расписали историю их выхода на вкладке. Но зато "альбомы" скомпонованы по стилистике, "Men From The Ministry" - это в основном бит и поп, а "Midsummer Nights Dreaming" - поп-психоделия.
John Carter - acoustic guitar, lead vocals, backing vocals
Russ Alquist - lead vocals
Micky Keen - electric guitar, backing vocals
Robin Shaw - bass, lead vocals, backing vocals
Clem Cattini - drums


Трекер:  [ 10-Дек-2012 06:35 ]

  

Скачать .torrent

Размер .torrent файла 21 KB


Размер: 493 MB
Хэш (hash) релиза: e7575b43217bbc0958bea464d5261752e4e8eef2

Еще никто не оставлял запись к записи скачать торрент Ministry Of Sound - "Men From The Ministry" "Midsummer Nights Dreaming" . Будь первым!

!Обратная связь