Скачать через торрент музыку Samson - Are You Samson - 196 бесплатно без регистрации torrent

Если у вас наблюдаются проблемы со скриншотами, переходом по ссылками, скачиванием торрентов - проблемы в блокировщике рекламы AdBlock. #хорошегоДня!


Статистика раздачи
Размер:  269 MB   |    Зарегистрирован:  4 года 11 месяцев   |    .torrent скачан:  11 раз   |   
Раздают:  1  
   
Загрузка...
 
Автор Сообщение

Galfimbul

avatar Galfimbul


Samson / Are You Samson

Жанр: Progressive rock / Psychedelic
Страна-производитель диска: United Kingdom
Год издания: 1969
Издатель (лейбл): Sanctuary Records (2001)
Номер по каталогу: CMRCD 064
Страна: United Kingdom
Аудиокодек: APE (*.ape)
Тип рипа: image+.cue
Битрейт аудио: lossless
Продолжительность: 36:55
Источник (релизер): ERRNY
Наличие сканов в содержимом раздачи: да
Треклист:
1. Traffic (3:27)
2. Sleep (2:20)
3. Journey (3:10)
4. Fair (8:44)
5. The End Song (4:44)
6. Mars (4:46)
7. Venus (2:56)
8. Saturn (3:49)
9. Poem for Sam (4:25)
10. Wool and Water - Bonus Track (4:24)
Exact Audio Copy V1.0 beta 1 from 15. November 2010

EAC extraction logfile from 16. April 2012, 20:16

Samson / Are You Samson

Used drive : TSSTcorpDVD+-RW TS-L532B Adapter: 1 ID: 0

Read mode : SecureUtilize accurate stream : YesDefeat audio cache : YesMake use of C2 pointers : No

Read offset correction : 704Overread into Lead-In and Lead-Out : NoFill up missing offset samples with silence : YesDelete leading and trailing silent blocks : NoNull samples used in CRC calculations : YesUsed interface : Native Win32 interface for Win NT & 2000

Used output format : Internal WAV RoutinesSample format : 44.100 Hz; 16 Bit; Stereo

TOC of the extracted CD

Track | Start | Length | Start sector | End sector --------------------------------------------------------- 1 | 0:00.00 | 3:27.35 | 0 | 15559 2 | 3:27.35 | 2:20.64 | 15560 | 26123 3 | 5:48.24 | 3:10.20 | 26124 | 40393 4 | 8:58.44 | 8:44.36 | 40394 | 79729 5 | 17:43.05 | 4:44.28 | 79730 | 101057 6 | 22:27.33 | 4:46.60 | 101058 | 122567 7 | 27:14.18 | 2:56.40 | 122568 | 135807 8 | 30:10.58 | 3:49.36 | 135808 | 153018 9 | 34:00.19 | 4:25.44 | 153019 | 172937 10 | 38:25.63 | 4:24.14 | 172938 | 192751

Range status and errors

Selected range

Filename C:\Documents and Settings\VB\My Documents\BARIN99\Samson - Are You Samson\Samson - Are You Samson.wav

Peak level 100.0 % Extraction speed 0.2 X Range quality 100.0 % Copy CRC D4A8D8BE Copy OK

No errors occurred

AccurateRip summary

Track 1 not present in databaseTrack 2 not present in databaseTrack 3 not present in databaseTrack 4 not present in databaseTrack 5 not present in databaseTrack 6 not present in databaseTrack 7 not present in databaseTrack 8 not present in databaseTrack 9 not present in databaseTrack 10 not present in database

None of the tracks are present in the AccurateRip database

End of status report
Started at: неділя, 09. 12. 2012. - 10:02.011 file found

1 -===- C:\Documents and Settings\user.ACME-9E632AFC91\Рабочий стол\Smsn\Samson – «Are You Samson» 1969[CD2001. Sanctuary Records.UK]\Samson - Are You Samson.ape Extracted successfully Conclusion: this track is CDDA with probability 100% Tempfile successfully deleted.

Finished at: неділя, 09. 12. 2012. - 10:06.49 (operation time: 0:04.47)
Samson (Main Performer)
Les Jones (Guitar)
Norman Findley (Organ)
Paul Ford (Trumpet)
Les Olbinson (Percussion)
Mike Delaney (Drums)


Трекер:  [ 10-Дек-2012 06:35 ]

  

Скачать .torrent

Размер .torrent файла 11 KB


Размер: 269 MB
Хэш (hash) релиза: 0872868b6c6a49dd8191724d24c167a987303ed4

Еще никто не оставлял запись к записи скачать торрент Samson - Are You Samson - 196 . Будь первым!

!Обратная связь