Скачать через торрент музыку DErcole - Dreams Of The Heart - 2012, FLAC бесплатно без регистрации torrent

Если у вас наблюдаются проблемы со скриншотами, переходом по ссылками, скачиванием торрентов - проблемы в блокировщике рекламы AdBlock. #хорошегоДня!


Статистика раздачи
Размер:  356 MB   |    Зарегистрирован:  4 года 11 месяцев   |    .torrent скачан:  9 раз   |   
Раздают:  1  
   
Загрузка...
 
Автор Сообщение

Galfimbul

avatar Galfimbul


D'Ercole / Dreams Of The Heart

Жанр: Hard rock
Страна-производитель диска: UK
Год издания: 2012
Издатель (лейбл): Z Records
Номер по каталогу: ZR0497156
Страна: US
Аудиокодек: FLAC (*.flac)
Тип рипа: image+.cue
Битрейт аудио: lossless
Продолжительность: 00:48:58
Источник (релизер): CD
Наличие сканов в содержимом раздачи: нет
01. Only Child 5:08
02. Givin' it All to You 4:58
03. Dreams of the Heart 3:43
04. I'll Be There for You 5:00
05. She Ain't No Good 5:06
06. You Keep Me Waiting 3:41
07. Too Little Too Late 4:21
08. Lies 4:09
09. A Million Miles 4:28
10. Hurt Me for the Last Time 4:21
11. Wearin' Me Down 4:03
Exact Audio Copy V1.0 beta 3 from 29. August 2011

Отчёт EAC об извлечении, выполненном 9. декабря 2012, 0:34

D'ercole / Dreams Of The Heart

Дисковод: Optiarc DVD RW AD-7260S Adapter: 3 ID: 0

Режим чтения : ДостоверностьИспользование точного потока : ДаОтключение кэша аудио : ДаИспользование указателей C2 : Нет

Коррекция смещения при чтении : 48Способность читать области Lead-in и Lead-out : НетЗаполнение пропущенных сэмплов тишиной : ДаУдаление блоков с тишиной в начале и конце : НетПри вычислениях CRC использовались нулевые сэмплы : ДаИнтерфейс : Встроенный Win32-интерфейс для Win NT/2000

Выходной формат : Пользовательский кодировщикВыбранный битрейт : 896 kBit/sКачество : ВысокийДобавление ID3-тега : ДаУтилита сжатия : C:\Program Files\Exact Audio Copy\Flac\flac.exeДополнительные параметры : -V -8 -T "Genre=%genre%" -T "Artist=%artist%" -T "Title=%title%" -T "Album=%albumtitle%" -T "Date=%year%" -T "Tracknumber=%tracknr%" -T "Comment=%comment%" %source%

TOC извлечённого CD

Трек | Старт | Длительность | Начальный сектор | Конечный сектор --------------------------------------------------------------------- 1 | 0:00.00 | 5:08.03 | 0 | 23102 2 | 5:08.03 | 4:58.34 | 23103 | 45486 3 | 10:06.37 | 3:43.30 | 45487 | 62241 4 | 13:49.67 | 5:00.14 | 62242 | 84755 5 | 18:50.06 | 5:05.63 | 84756 | 107693 6 | 23:55.69 | 3:40.58 | 107694 | 124251 7 | 27:36.52 | 4:21.28 | 124252 | 143854 8 | 31:58.05 | 4:09.11 | 143855 | 162540 9 | 36:07.16 | 4:27.66 | 162541 | 182631 10 | 40:35.07 | 4:20.46 | 182632 | 202177 11 | 44:55.53 | 4:02.53 | 202178 | 220380

Характеристики диапазона извлечения и сообщения об ошибках

Выбранный диапазон

Имя файла M:\Раздачи\D'Ercole - Dreams Of The Heart - 2012 Flac\D'ercole - Dreams Of The Heart.wav

Пиковый уровень 100.0 % Скорость извлечения 4.0 X Качество диапазона 100.0 % CRC теста 1319191B CRC копии 1319191B Копирование... OK

Ошибок не произошло

AccurateRip: сводка

Трек 1 отсутствует в базе данныхТрек 2 отсутствует в базе данныхТрек 3 отсутствует в базе данныхТрек 4 отсутствует в базе данныхТрек 5 отсутствует в базе данныхТрек 6 отсутствует в базе данныхТрек 7 отсутствует в базе данныхТрек 8 отсутствует в базе данныхТрек 9 отсутствует в базе данныхТрек 10 отсутствует в базе данныхТрек 11 отсутствует в базе данных

Ни одного трека нет в базе AccurateRip

Конец отчёта
AUDIOCHECKER v2.0 beta (build 457) - by Dester - <a href="mailto:opdester@freemail.hu" class="postLink">opdester@freemail.hu</a>~~~~~~~~~~~~~~~~~~~~~~~~~~~~~~~~~~-=== НЕ РЕДАКТИРУЙТЕ ЭТОТ ФАЙЛ! ===-

Путь: ...\D'Ercole - Dreams Of The Heart - 2012 Flac

1 -=- D'ercole - Dreams Of The Heart.flac -=- CDDA (100%)

86436148
Damiean D'Ercole - Rhythm guitars
Phil Vincent - All vocals, Rhythm guitars, Keyboards, Drums
William Arnold - Bass
Vince O'Regan - Lead guitars
Tane DeAngelis - Drums


Трекер:  [ 10-Дек-2012 06:35 ]

  

Скачать .torrent

Размер .torrent файла 14 KB


Размер: 356 MB
Хэш (hash) релиза: 668673d8fad407631fa7228eaa042e647bfb112a

Еще никто не оставлял запись к записи скачать торрент DErcole - Dreams Of The Heart - 2012, FLAC . Будь первым!

!Обратная связь