Скачать через торрент музыку Manal - Manal бесплатно без регистрации torrent

Если у вас наблюдаются проблемы со скриншотами, переходом по ссылками, скачиванием торрентов - проблемы в блокировщике рекламы AdBlock. #хорошегоДня!


Статистика раздачи
Размер:  201 MB   |    Зарегистрирован:  4 года 8 месяцев   |    .torrent скачан:  16 раз   |   
Раздают:  1  
   
Загрузка...
 
Автор Сообщение

Galfimbul

avatar Galfimbul


Manal / Manal (1970) mini-Vinyl

Жанр: Blues Rock,Hard Rock
Год издания: 2005
Аудиокодек: FLAC (*.flac)
Тип рипа: image+.cue
Битрейт аудио: lossless
Продолжительность: 34:16
Источник (релизер): my disc
Наличие сканов в содержимом раздачи: да
Треклист:
01. Jugo De Tomate [0:02:49.38]
02. Porque Hoy Naci [0:04:30.11]
03. Porque Hoy Naci [0:02:54.16]
04. Todo El Dia Me Pregunto [0:06:06.62]
05. Avellaneda Blues [0:05:36.57]
06. Casa Con Diez Pinos [0:04:17.41]
07. Informe De Un Dia [0:08:00.70]
Exact Audio Copy V0.99 prebeta 4 from 23. January 2008

Отчёт EAC об извлечении, выполненном 9. декабря 2012, 5:03

Manal / Manal (1970)

Дисковод: ASUS DRW-1814BL Adapter: 1 ID: 0

Режим чтения : ДостоверностьИспользование точного потока : ДаОтключение кэша аудио : ДаИспользование указателей C2 : Нет

Коррекция смещения при чтении : 6Способность читать области Lead-in и Lead-out : НетЗаполнение пропущенных сэмплов тишиной : ДаУдаление блоков с тишиной в начале и конце : НетПри вычислениях CRC использовались нулевые сэмплы : ДаИнтерфейс : Установленный внешний ASPI-интерфейс

Выходной формат : Пользовательский кодировщикВыбранный битрейт : 1024 kBit/sКачество : ВысокийДобавление ID3-тэга : НетУтилита сжатия : C:\Program Files\Exact Audio Copy\FLAC\FLAC.EXEДополнительные параметры : -6 -V -T "ARTIST=%a" -T "TITLE=%t" -T "ALBUM=%g" -T "DATE=%y" -T "TRACKNUMBER=%n" -T "GENRE=%m" -T "COMMENT=%e" %s -o %d

TOC извлечённого CD

Трек | Старт | Длительность | Начальный сектор | Конечный сектор --------------------------------------------------------------------- 1 | 0:00.00 | 2:49.38 | 0 | 12712 2 | 2:49.38 | 4:30.11 | 12713 | 32973 3 | 7:19.49 | 2:54.16 | 32974 | 46039 4 | 10:13.65 | 6:06.62 | 46040 | 73551 5 | 16:20.52 | 5:36.57 | 73552 | 98808 6 | 21:57.34 | 4:17.41 | 98809 | 118124 7 | 26:15.00 | 8:00.70 | 118125 | 154194

Характеристики диапазона извлечения и сообщения об ошибках

Выбранный диапазон

Имя файла D:\loSSleSS\manal'70\Manal - Manal (1970).wav

Пиковый уровень 100.0 % Качество диапазона 100.0 % CRC теста C00A3E87 CRC копии C00A3E87 Копирование... OK

Ошибок не произошло

AccurateRip: сводка

Трек 1 точность не определена (достоверность 2) [BE5A7CD1], AccurateRip вернул [E47FD732]Трек 2 точность не определена (достоверность 2) [42695BF9], AccurateRip вернул [5CEC6A9B]Трек 3 точность не определена (достоверность 2) [0566DAA1], AccurateRip вернул [A95457AC]Трек 4 точность не определена (достоверность 2) [F0FC9C53], AccurateRip вернул [13FC0A87]Трек 5 точность не определена (достоверность 2) [5BF1C0E9], AccurateRip вернул [A5C43EB5]Трек 6 точность не определена (достоверность 2) [76ECCEE4], AccurateRip вернул [955F87C6]Трек 7 точность не определена (достоверность 2) [DD8AFB8D], AccurateRip вернул [C8802FDD]

Ни один трек не прошёл проверки на точностьВ вашей базе может быть иной вариант штамповки диска

Конец отчёта
Ребят из этой группы наравне с Los Gatos и Almendra можно считать основателями аргентинской рок музыки. Всю свою недолгую историю первого периода существования и позже, когда происходили так называемые реюньёны, группа играла блюз-рок. Участниками коллектива были: гитарист Claudio Gabis, басист Alejandro Medina и ударник Javier Martínez. Особенностью коллектива было то, что ведущим вокалистом и автором большинства произведений был человек сидящий за ударной установкой, что, согласитесь, бывает не часто.Группа выросла в уже теперь мифическом клубе "La Cueva", который является родиной для многих ранних аргентинских рок-групп. Слово для названия выдумал Хавье Мартинес, смысл которого можно приблизительно перевести как «Вручную». Сами ребята из группы Manal явно находились под влиянием группы Cream, что можно расслышать в первых альбомах.Но сначала своего существования, а точнее в 1968 году, группа безрезультатно мыкалась по студиям звукозаписи со своими демонстрационными демками и лишь повстречав Jorge Alvarez и Pedro Pujó – основателей компании Mandioca Label, специализировавшихся исключительно на аргентинских исполнителях, группе удалось выпустить свои первые два сингла. Первого успеха группа достигла в 1969 году на музыкальном фестивале Pinap, после которого их загруженность и концертная деятельность возросли настолько, что аппаратура перестала выдерживать нагрузки и частенько ломалась. Первый альбом, группа записывает в 1970 году и успех от его продаж побудил музыкантов записать сразу же и второй, результаты продаж которого были гораздо слабее.В 1972 году группа прекратила своё существование, по причине изменения коньюктуры рынка и интересов слушателей, а группа Manal не смогла перестроиться и изменить выбранному стилю.В 1980 году на волне камбеков и реюньёнов, группа воссоединилась и выпустила студийный и концертный альбомы, что смягчило сожаление фанатов по поводу их распада в 1972-ом. В последствии, несколько раз выпускались записи, сделанные на концертах ещё в «то время».Как и многие группы в этой стране, которые пели не только на испанском но и на английском языках, Manal подвергался цензуре, гонениям и исключению из радиоэфира в 1982-ом.Статью хочется закончить цитатой из песни группы Manal, которая эксцентрическим образом объясняет популярность группы у аргентинских слушателей того времени: «Потому что холодный томатный сок течёт в наших жилах» - в смысле "приятного аппетита"!
Alejandro Medina/bass,vocals
Claudio Gabis/guitar
Javier Martinez/drums,vocals


Трекер:  [ 10-Дек-2012 06:35 ]

  

Скачать .torrent

Размер .torrent файла 16 KB


Размер: 201 MB
Хэш (hash) релиза: ab235d3149666cce5395190472da448bbdda1d30

Торренты, похожие на Manal - Manal скачать торрент

Форум Название Автор Размер S L Добавлен
Зарубежный Rock ·· (Psych,Blues Rock) Claudio Gabis (ex-Manal) - Claudio Gabis (mini-Vinyl) 1974 - 2005, FLAC (image+.cue), lossless Galfimbul 231610093221 MB 0 0 1355110320

06:32

10-Дек-12

Еще никто не оставлял запись к записи скачать торрент Manal - Manal . Будь первым!

!Обратная связь