Скачать через торрент музыку Dave Mason - Dave Mason & Cass Elliott - 1971, FLAC бесплатно без регистрации torrent

Если у вас наблюдаются проблемы со скриншотами, переходом по ссылками, скачиванием торрентов - проблемы в блокировщике рекламы AdBlock. #хорошегоДня!


Статистика раздачи
Размер:  475 MB   |    Зарегистрирован:  4 года 8 месяцев   |    .torrent скачан:  6 раз   |   
Раздают:  1  
   
Загрузка...
 
Автор Сообщение

Galfimbul

avatar Galfimbul


Dave Mason - Dave Mason & Cass Elliott

Жанр: rock, folk-rock
Страна-производитель диска: EU
Год издания: 2008
Издатель (лейбл): Rev-Ola Records/Cherry Red
Номер по каталогу: CRREV255
Страна: UK
Аудиокодек: FLAC (*.flac)
Тип рипа: tracks+.cue
Битрейт аудио: lossless
Продолжительность: 34:10
Наличие сканов в содержимом раздачи: Low-Res, Hi-Res - на выбор
Рип выполнен с фирменного диска из личной коллекции, Secure mode, Accurate stream, Test & Copy
01 - Walk to the Point
02 - On and On
03 - To Be Free
04 - Here We Go Again
05 - Pleasing You
06 - Sit and Wonder
07 - Someting to Make You Happy
08 - Too Much Truth, Too Much Love
09 - Next to You
10 - Glittering Facade
Exact Audio Copy V1.0 beta 3 from 29. August 2011

EAC extraction logfile from 1. March 2012, 0:31

Dave Mason & Cass Elliot / Dave Mason & Cass Elliot

Used drive : PIONEER DVD-RW DVR-115D Adapter: 1 ID: 0

Read mode : SecureUtilize accurate stream : YesDefeat audio cache : YesMake use of C2 pointers : No

Read offset correction : 48Overread into Lead-In and Lead-Out : NoFill up missing offset samples with silence : YesDelete leading and trailing silent blocks : NoNull samples used in CRC calculations : YesUsed interface : Installed external ASPI interfaceGap handling : Appended to previous track

Used output format : User Defined EncoderSelected bitrate : 256 kBit/sQuality : HighAdd ID3 tag : NoCommand line compressor : C:\Program Files\Exact Audio Copy 1.0\Exact Audio Copy\Flac\flac.exeAdditional command line options : -V -8 -T "Genre=%genre%" -T "Artist=%artist%" -T "Title=%title%" -T "Album=%albumtitle%" -T "Date=%year%" -T "Tracknumber=%tracknr%" -T "Comment=%comment%" %source%

TOC of the extracted CD

Track | Start | Length | Start sector | End sector --------------------------------------------------------- 1 | 0:00.00 | 4:01.52 | 0 | 18126 2 | 4:01.52 | 3:36.61 | 18127 | 34387 3 | 7:38.38 | 3:37.49 | 34388 | 50711 4 | 11:16.12 | 2:50.18 | 50712 | 63479 5 | 14:06.30 | 3:03.36 | 63480 | 77240 6 | 17:09.66 | 3:31.55 | 77241 | 93120 7 | 20:41.46 | 2:18.17 | 93121 | 103487 8 | 22:59.63 | 3:52.70 | 103488 | 120957 9 | 26:52.58 | 2:31.64 | 120958 | 132346 10 | 29:24.47 | 4:46.12 | 132347 | 153808

Track 1

Filename M:\Lossless Temp\Dave Mason\Dave Mason - Dave Mason & Cass Elliott - 1971\01 - Dave Mason & Cass Elliot - Walk to the Point.wav

Pre-gap length 0:00:02.00

Peak level 100.0 % Extraction speed 4.0 X Track quality 99.9 % Test CRC 3E044AD0 Copy CRC 3E044AD0 Track not present in AccurateRip database Copy OK

Track 2

Filename M:\Lossless Temp\Dave Mason\Dave Mason - Dave Mason & Cass Elliott - 1971\02 - Dave Mason & Cass Elliot - On and On.wav

Peak level 100.0 % Extraction speed 4.3 X Track quality 99.9 % Test CRC 786F7761 Copy CRC 786F7761 Track not present in AccurateRip database Copy OK

Track 3

Filename M:\Lossless Temp\Dave Mason\Dave Mason - Dave Mason & Cass Elliott - 1971\03 - Dave Mason & Cass Elliot - To Be Free.wav

Peak level 100.0 % Extraction speed 5.3 X Track quality 100.0 % Test CRC ACE02129 Copy CRC ACE02129 Track not present in AccurateRip database Copy OK

Track 4

Filename M:\Lossless Temp\Dave Mason\Dave Mason - Dave Mason & Cass Elliott - 1971\04 - Dave Mason & Cass Elliot - Here We Go Again.wav

Peak level 100.0 % Extraction speed 5.4 X Track quality 100.0 % Test CRC 2D082C64 Copy CRC 2D082C64 Track not present in AccurateRip database Copy OK

Track 5

Filename M:\Lossless Temp\Dave Mason\Dave Mason - Dave Mason & Cass Elliott - 1971\05 - Dave Mason & Cass Elliot - Pleasing You.wav

Peak level 100.0 % Extraction speed 5.7 X Track quality 100.0 % Test CRC B7B3FFBA Copy CRC B7B3FFBA Track not present in AccurateRip database Copy OK

Track 6

Filename M:\Lossless Temp\Dave Mason\Dave Mason - Dave Mason & Cass Elliott - 1971\06 - Dave Mason & Cass Elliot - Sit and Wonder.wav

Peak level 100.0 % Extraction speed 6.2 X Track quality 100.0 % Test CRC 8FD23897 Copy CRC 8FD23897 Track not present in AccurateRip database Copy OK

Track 7

Filename M:\Lossless Temp\Dave Mason\Dave Mason - Dave Mason & Cass Elliott - 1971\07 - Dave Mason & Cass Elliot - Someting to Make You Happy.wav

Peak level 100.0 % Extraction speed 5.9 X Track quality 100.0 % Test CRC C907C1D6 Copy CRC C907C1D6 Track not present in AccurateRip database Copy OK

Track 8

Filename M:\Lossless Temp\Dave Mason\Dave Mason - Dave Mason & Cass Elliott - 1971\08 - Dave Mason & Cass Elliot - Too Much Truth, Too Much Love.wav

Peak level 100.0 % Extraction speed 6.7 X Track quality 100.0 % Test CRC 3C46900A Copy CRC 3C46900A Track not present in AccurateRip database Copy OK

Track 9

Filename M:\Lossless Temp\Dave Mason\Dave Mason - Dave Mason & Cass Elliott - 1971\09 - Dave Mason & Cass Elliot - Next to You.wav

Peak level 100.0 % Extraction speed 6.5 X Track quality 100.0 % Test CRC FC8C5059 Copy CRC FC8C5059 Track not present in AccurateRip database Copy OK

Track 10

Filename M:\Lossless Temp\Dave Mason\Dave Mason - Dave Mason & Cass Elliott - 1971\10 - Dave Mason & Cass Elliot - Glittering Facade.wav

Peak level 100.0 % Extraction speed 6.6 X Track quality 99.9 % Test CRC 1E3DE2A1 Copy CRC 1E3DE2A1 Track not present in AccurateRip database Copy OK

None of the tracks are present in the AccurateRip database

No errors occurred

End of status report

==== Log checksum 547ECD33E57C02EDFFB873B4EAFD6D7EE7AE676EF041215A1DF6AEDCC8530E27 ====
REM GENRE RockREM DATE 1971REM DISCID 7A08020AREM COMMENT "ExactAudioCopy v1.0b3"PERFORMER "Dave Mason & Cass Elliot"TITLE "Dave Mason & Cass Elliot"FILE "01 - Dave Mason & Cass Elliot - Walk to the Point.flac" WAVE TRACK 01 AUDIO TITLE "Walk to the Point" PERFORMER "Dave Mason & Cass Elliot" INDEX 01 00:00:00FILE "02 - Dave Mason & Cass Elliot - On and On.flac" WAVE TRACK 02 AUDIO TITLE "On and On" PERFORMER "Dave Mason & Cass Elliot" INDEX 01 00:00:00FILE "03 - Dave Mason & Cass Elliot - To Be Free.flac" WAVE TRACK 03 AUDIO TITLE "To Be Free" PERFORMER "Dave Mason & Cass Elliot" INDEX 01 00:00:00FILE "04 - Dave Mason & Cass Elliot - Here We Go Again.flac" WAVE TRACK 04 AUDIO TITLE "Here We Go Again" PERFORMER "Dave Mason & Cass Elliot" INDEX 01 00:00:00FILE "05 - Dave Mason & Cass Elliot - Pleasing You.flac" WAVE TRACK 05 AUDIO TITLE "Pleasing You" PERFORMER "Dave Mason & Cass Elliot" INDEX 01 00:00:00FILE "06 - Dave Mason & Cass Elliot - Sit and Wonder.flac" WAVE TRACK 06 AUDIO TITLE "Sit and Wonder" PERFORMER "Dave Mason & Cass Elliot" INDEX 01 00:00:00FILE "07 - Dave Mason & Cass Elliot - Someting to Make You Happy.flac" WAVE TRACK 07 AUDIO TITLE "Someting to Make You Happy" PERFORMER "Dave Mason & Cass Elliot" INDEX 01 00:00:00FILE "08 - Dave Mason & Cass Elliot - Too Much Truth, Too Much Love.flac" WAVE TRACK 08 AUDIO TITLE "Too Much Truth, Too Much Love" PERFORMER "Dave Mason & Cass Elliot" INDEX 01 00:00:00FILE "09 - Dave Mason & Cass Elliot - Next to You.flac" WAVE TRACK 09 AUDIO TITLE "Next to You" PERFORMER "Dave Mason & Cass Elliot" INDEX 01 00:00:00FILE "10 - Dave Mason & Cass Elliot - Glittering Facade.flac" WAVE TRACK 10 AUDIO TITLE "Glittering Facade" PERFORMER "Dave Mason & Cass Elliot" INDEX 01 00:00:00



Трекер:  [ 10-Дек-2012 06:35 ]

  

Скачать .torrent

Размер .torrent файла 21 KB


Размер: 475 MB
Хэш (hash) релиза: f258aac5a25e6bf4f1abd71522382f1ad64b3ccf

Еще никто не оставлял запись к записи скачать торрент Dave Mason - Dave Mason & Cass Elliott - 1971, FLAC . Будь первым!

!Обратная связь