Скачать через торрент музыку Rocking JoJo And His Red Angels - Rockin & Rollin - 1997, FLAC бесплатно без регистрации torrent

Если у вас наблюдаются проблемы со скриншотами, переходом по ссылками, скачиванием торрентов - проблемы в блокировщике рекламы AdBlock. #хорошегоДня!


Статистика раздачи
Размер:  236 MB   |    Зарегистрирован:  4 года 8 месяцев   |    .torrent скачан:  6 раз   |   
Раздают:  1  
   
Загрузка...
 
Автор Сообщение

Galfimbul

avatar Galfimbul


Rocking JoJo And His Red Angels / Rockin' & Rollin'

Жанр: Rock'n'Roll
Страна-производитель диска: Netherlands
Год издания: 1997
Издатель (лейбл): HCD Music Productions
Номер по каталогу: HCD 93080
Страна: Netherlands
Аудиокодек: FLAC (*.flac)
Тип рипа: image+.cue
Битрейт аудио: lossless
Продолжительность: 43:13
Источник (релизер): AUDELAS KINGDOM
Наличие сканов в содержимом раздачи: да

01. Route 66
02. Judy
03. Eighteen Yellow Roses
04. California Blue
05. Three Steps To Heaven
06. Honey Don't
07. Ydille
08. Slow Medley
09. Living Doll
10. Crying, Waiting, Hoping
11. In The Mood
12. Heavenly
13. Travelin' Light
14. Matchbox
15. Blue Eyes Crying
Exact Audio Copy V1.0 beta 2 from 29. April 2011

Отчёт EAC об извлечении, выполненном 8. декабря 2012, 14:29

Rocking JoJo And His Red Angels / Rockin' & Rollin'

Дисковод: ATAPI iHAS124 B Adapter: 1 ID: 1

Режим чтения : ДостоверностьИспользование точного потока : ДаОтключение кэша аудио : ДаИспользование указателей C2 : Нет

Коррекция смещения при чтении : 6Способность читать области Lead-in и Lead-out : НетЗаполнение пропущенных сэмплов тишиной : ДаУдаление блоков с тишиной в начале и конце : НетПри вычислениях CRC использовались нулевые сэмплы : ДаИнтерфейс : Встроенный Win32-интерфейс для Win NT/2000

Выходной формат : Пользовательский кодировщикВыбранный битрейт : 1024 kBit/sКачество : ВысокийДобавление ID3-тега : НетУтилита сжатия : C:\Program Files\Exact Audio Copy\FLAC\FLAC.EXEДополнительные параметры : -6 -V -T "ARTIST=%artist%" -T "TITLE=%title%" -T "ALBUM=%albumtitle%" -T "DATE=%year%" -T "TRACKNUMBER=%tracknr%" -T "GENRE=%genre%" -T "COMMENT=%comment%" -T "BAND=%albuminterpret%" -T "COMPOSER=%composer%" %haslyrics%--tag-from-

TOC извлечённого CD

Трек | Старт | Длительность | Начальный сектор | Конечный сектор --------------------------------------------------------------------- 1 | 0:00.00 | 3:13.14 | 0 | 14488 2 | 3:13.14 | 3:15.23 | 14489 | 29136 3 | 6:28.37 | 2:14.74 | 29137 | 39260 4 | 8:43.36 | 3:27.45 | 39261 | 54830 5 | 12:11.06 | 2:18.00 | 54831 | 65180 6 | 14:29.06 | 3:10.56 | 65181 | 79486 7 | 17:39.62 | 2:22.18 | 79487 | 90154 8 | 20:02.05 | 2:53.28 | 90155 | 103157 9 | 22:55.33 | 2:29.64 | 103158 | 114396 10 | 25:25.22 | 3:08.68 | 114397 | 128564 11 | 28:34.15 | 2:40.38 | 128565 | 140602 12 | 31:14.53 | 3:12.25 | 140603 | 155027 13 | 34:27.03 | 2:40.67 | 155028 | 167094 14 | 37:07.70 | 2:42.55 | 167095 | 179299 15 | 39:50.50 | 3:30.00 | 179300 | 195049

Характеристики диапазона извлечения и сообщения об ошибках

Выбранный диапазон

Имя файла D:\Muzika\Rocking JoJo And His Red Angels - Rockin' & Rollin' (1997)\Rocking JoJo And His Red Angels - Rockin' & Rollin'.wav

Пиковый уровень 100.0 % Скорость извлечения 7.9 X Качество диапазона 100.0 % CRC теста 9A485781 CRC копии 9A485781 Копирование... OK

Ошибок не произошло

AccurateRip: сводка

Трек 1 отсутствует в базе данныхТрек 2 отсутствует в базе данныхТрек 3 отсутствует в базе данныхТрек 4 отсутствует в базе данныхТрек 5 отсутствует в базе данныхТрек 6 отсутствует в базе данныхТрек 7 отсутствует в базе данныхТрек 8 отсутствует в базе данныхТрек 9 отсутствует в базе данныхТрек 10 отсутствует в базе данныхТрек 11 отсутствует в базе данныхТрек 12 отсутствует в базе данныхТрек 13 отсутствует в базе данныхТрек 14 отсутствует в базе данныхТрек 15 отсутствует в базе данных

Ни одного трека нет в базе AccurateRip

Конец отчёта

==== Контрольная сумма отчёта F18E89FF1CD12321A35D4F8DFA53E13FE10A4563C3442E261669766F20ECCECF ====


Трекер:  [ 10-Дек-2012 06:35 ]

  

Скачать .torrent

Размер .torrent файла 19 KB


Размер: 236 MB
Хэш (hash) релиза: c47a6feedfaadb62d0fac9df29e1da67f17bced6

Еще никто не оставлял запись к записи скачать торрент Rocking JoJo And His Red Angels - Rockin & Rollin - 1997, FLAC . Будь первым!

!Обратная связь