Скачать через торрент музыку Rondo Hatton - Rondo Hatton - 2012, FLAC бесплатно без регистрации torrent

Если у вас наблюдаются проблемы со скриншотами, переходом по ссылками, скачиванием торрентов - проблемы в блокировщике рекламы AdBlock. #хорошегоДня!


Статистика раздачи
Размер:  351 MB   |    Зарегистрирован:  4 года 8 месяцев   |    .torrent скачан:  7 раз   |   
Раздают:  1  
   
Загрузка...
 
Автор Сообщение

Galfimbul

avatar Galfimbul


Rondo Hatton

Rondo Hatton

Жанр: Surf, Western, Spy
Страна-производитель диска: USA
Год издания: 2012
Аудиокодек: FLAC (*.flac)
Тип рипа: image+.cue
Битрейт аудио: lossless
Продолжительность: 45:32
Источник (релизер): ©СЁРФ-Маrаtones aka izia1956
Наличие сканов в содержимом раздачи: да



01. Pedal Pusher (2:20)
02. Sea Breeze (3:16)
03. Paso De Cascabel (3:07)
04. Saguaro (3:17)
05. Little Ruby (3:14)
06. Chiqhuahuac Point (2:43)
07. Gaucho (2:14)
08. Gale Force (3:13)
09. Agave (2:31)
10. The Devil's Reef (2:23)
11. Lover's Cove (6:00)
12. La Bahia Azul (3:46)
13. Danger Zone (2:44)
14. Skee-Daddle (2:24)
15. Corrido Rock (2:20)

Exact Audio Copy V0.99 prebeta 5 from 4. May 2009

Отчёт EAC об извлечении, выполненном 2. декабря 2012, 11:09

Rondo Hatton / Rondo Hatton

Дисковод: PLEXTOR DVDR PX-880SA Adapter: 1 ID: 0

Режим чтения : ДостоверностьИспользование точного потока : ДаОтключение кэша аудио : ДаИспользование указателей C2 : Нет

Коррекция смещения при чтении : 6Способность читать области Lead-in и Lead-out : НетЗаполнение пропущенных сэмплов тишиной : ДаУдаление блоков с тишиной в начале и конце : НетПри вычислениях CRC использовались нулевые сэмплы : ДаИнтерфейс : Установленный внешний ASPI-интерфейс

Выходной формат : Пользовательский кодировщикВыбранный битрейт : 1024 kBit/sКачество : ВысокийДобавление ID3-тэга : НетУтилита сжатия : C:\Program Files\Exact Audio Copy\FLAC\FLAC.EXEДополнительные параметры : -10 -V -T "ARTIST=%a" -T "TITLE=%t" -T "ALBUM=%g" -T "DATE=%y" -T "TRACKNUMBER=%n" -T "GENRE=%m" -T "COMMENT=%e" %s -o %d

TOC извлечённого CD

Трек | Старт | Длительность | Начальный сектор | Конечный сектор --------------------------------------------------------------------- 1 | 0:00.00 | 2:19.72 | 0 | 10496 2 | 2:19.72 | 3:16.11 | 10497 | 25207 3 | 5:36.08 | 3:06.42 | 25208 | 39199 4 | 8:42.50 | 3:16.55 | 39200 | 53954 5 | 11:59.30 | 3:13.73 | 53955 | 68502 6 | 15:13.28 | 2:42.60 | 68503 | 80712 7 | 17:56.13 | 2:14.24 | 80713 | 90786 8 | 20:10.37 | 3:13.25 | 90787 | 105286 9 | 23:23.62 | 2:31.37 | 105287 | 116648 10 | 25:55.24 | 2:23.00 | 116649 | 127373 11 | 28:18.24 | 6:00.18 | 127374 | 154391 12 | 34:18.42 | 3:46.08 | 154392 | 171349 13 | 38:04.50 | 2:44.16 | 171350 | 183665 14 | 40:48.66 | 2:24.10 | 183666 | 194475 15 | 43:13.01 | 2:19.39 | 194476 | 204939

Характеристики диапазона извлечения и сообщения об ошибках

Выбранный диапазон

Имя файла D:\BitComet\Rondo Hatton - Rondo Hatton(2012)(flac)\Rondo Hatton - Rondo Hatton.wav

Пиковый уровень 99.4 % Качество диапазона 100.0 % CRC теста 3BFE2E59 CRC копии 3BFE2E59 Копирование... OK

Ошибок не произошло

AccurateRip: сводка

Трек 1 нет в базе данныхТрек 2 нет в базе данныхТрек 3 нет в базе данныхТрек 4 нет в базе данныхТрек 5 нет в базе данныхТрек 6 нет в базе данныхТрек 7 нет в базе данныхТрек 8 нет в базе данныхТрек 9 нет в базе данныхТрек 10 нет в базе данныхТрек 11 нет в базе данныхТрек 12 нет в базе данныхТрек 13 нет в базе данныхТрек 14 нет в базе данныхТрек 15 нет в базе данных

Ни одного трека нет в базе AccurateRip

Конец отчёта
Surf music from Louisiana? Really? Yep, a quick listen to Rondo Hatton and you'll almost smell the salt air, feel the ocean's breeze on your face and the sand between your toes. Rondo Hatton is an all instrumental quartet based in Baton Rouge, LA. The group plays a variety of music styles including surf, spy , hot rod, westerns, TV themes , Latin and just about anything else, even polkas!

The group is fronted by guitarist Bruce Lamb, who also composes the band's original songs. His musical background includes Blugrass and Country, Blues, R & B, Cajun, Exotica and Tex-Mex Conjunto. He has backed the likes of blues greats Silas Hogan and Lazy Lester, as well as Conjunto legends Flaco Jimenez, Mingo Saldivar and Eddie "Lalo" Torres.

Guitarist Johnny Rossetti has a diverse musical background having played Country, Cajun, Blues and Swamp Pop. He was a member of David Allen Coe's road band and spent many years touring with The Copas Brothers and with Hamonica Red.

Bassist Les Leblanc has been the go to guy for groups all over Louisiana for over 40 years. Equally at home on bass, guitar and keyboards, Les has been in demand with R&B and Swamp Pop bands throughout the south.

Louisiana Music Hall of Fame inductee, Joe Miceli is the man behind the drums. Joe played with John Fred and the Playboys for years. Remember "Judy in Disguise"? It was Joe keeping the beat on this Number 1 hit. Joe has also played with the Copas Brothers as well as Sauce Picante(which featured guitarist Mike Loudermilk, son of famed songwriter John D. Loudermilk).

This is Rondo Hatton's second CD release. The first, released in the spring of 2011, featured several originals by Bruce Lamb and a mix of well known and odd ball instrumental songs. This second CD realeased in the spring of 2012 features all originals except for the the last song, a late 50's Tex-Mex rocker titled "Corrido Rock".

While Rondo Hatton has limited their performances to the Gulf Coast region, they are now branching out to the rest of the U.S. and at the same time are gaining international recognition.
Доп. информация: ©СЁРФ-Марафон продолжает Rondo Hatton!!!

Рип сделан собственноручно.
Сканы в папке.
Ознакомиться (прослушать) можно здесь

Рип от ©СЁРФ-Маrаtones aka izia1956

Трекер:  [ 10-Дек-2012 06:35 ]

  

Скачать .torrent

Размер .torrent файла 14 KB


Размер: 351 MB
Хэш (hash) релиза: 4ea3f76faba9b2042c486bd9d18ffc4984e04773

Еще никто не оставлял запись к записи скачать торрент Rondo Hatton - Rondo Hatton - 2012, FLAC . Будь первым!

!Обратная связь