Скачать через торрент музыку Jack Scott - Scott On Groove бесплатно без регистрации torrent

Если у вас наблюдаются проблемы со скриншотами, переходом по ссылками, скачиванием торрентов - проблемы в блокировщике рекламы AdBlock. #хорошегоДня!


Статистика раздачи
Размер:  269 MB   |    Зарегистрирован:  4 года 10 месяцев   |    .torrent скачан:  8 раз   |   
Раздают:  1  
   
Загрузка...
 
Автор Сообщение

Galfimbul

avatar Galfimbul


Jack Scott / Scott On Groove

Жанр: Rockabilly / Rock'n'Roll
Страна-производитель диска: West Germany
Год издания: 1989
Издатель (лейбл): Bear Family Records
Номер по каталогу: BCD 15445
Страна: USA
Аудиокодек: FLAC (*.flac)
Тип рипа: image+.cue
Битрейт аудио: lossless
Продолжительность: 59:22
Источник (релизер): AUDELAS KINGDOM
Наличие сканов в содержимом раздачи: да
01. There's Trouble Brewing
02. Jingle Bell Slide
03. I Knew You First
04. Blue Skies (Moving In On Me)
05. I Prayed For An Angel
06. Thou Shalt Not Steal
07. Wiggle On Out
08. What A Wonderful Night Out
09. Flakey John
10. Separation's Now Granted
11. Tall Tales
12. I Don't Believe In Tea Leaves
13. The Road Keeps Winding
14. Looking For Linda
15. Gone Again
16. Don't Hush The Laughter
17. Standing On The Outside Looking In
18. I Hope, I Think, I Wish
19. Let's Learn To Live And Love Again
20. This Is Where I Came In
Exact Audio Copy V1.0 beta 2 from 29. April 2011

Отчёт EAC об извлечении, выполненном 8. декабря 2012, 16:30

Jack Scott / Scott On Groove

Дисковод: ATAPI iHAS124 B Adapter: 1 ID: 1

Режим чтения : ДостоверностьИспользование точного потока : ДаОтключение кэша аудио : ДаИспользование указателей C2 : Нет

Коррекция смещения при чтении : 6Способность читать области Lead-in и Lead-out : НетЗаполнение пропущенных сэмплов тишиной : ДаУдаление блоков с тишиной в начале и конце : НетПри вычислениях CRC использовались нулевые сэмплы : ДаИнтерфейс : Встроенный Win32-интерфейс для Win NT/2000

Выходной формат : Пользовательский кодировщикВыбранный битрейт : 1024 kBit/sКачество : ВысокийДобавление ID3-тега : НетУтилита сжатия : C:\Program Files\Exact Audio Copy\FLAC\FLAC.EXEДополнительные параметры : -6 -V -T "ARTIST=%artist%" -T "TITLE=%title%" -T "ALBUM=%albumtitle%" -T "DATE=%year%" -T "TRACKNUMBER=%tracknr%" -T "GENRE=%genre%" -T "COMMENT=%comment%" -T "BAND=%albuminterpret%" -T "COMPOSER=%composer%" %haslyrics%--tag-from-

TOC извлечённого CD

Трек | Старт | Длительность | Начальный сектор | Конечный сектор --------------------------------------------------------------------- 1 | 0:00.00 | 2:26.42 | 0 | 10991 2 | 2:26.42 | 2:09.53 | 10992 | 20719 3 | 4:36.20 | 2:27.72 | 20720 | 31816 4 | 7:04.17 | 2:11.35 | 31817 | 41676 5 | 9:15.52 | 2:39.33 | 41677 | 53634 6 | 11:55.10 | 2:17.72 | 53635 | 63981 7 | 14:13.07 | 2:23.13 | 63982 | 74719 8 | 16:36.20 | 2:36.12 | 74720 | 86431 9 | 19:12.32 | 2:12.50 | 86432 | 96381 10 | 21:25.07 | 2:21.70 | 96382 | 107026 11 | 23:47.02 | 2:21.23 | 107027 | 117624 12 | 26:08.25 | 2:34.00 | 117625 | 129174 13 | 28:42.25 | 2:02.17 | 129175 | 138341 14 | 30:44.42 | 2:47.10 | 138342 | 150876 15 | 33:31.52 | 2:14.50 | 150877 | 160976 16 | 35:46.27 | 2:34.18 | 160977 | 172544 17 | 38:20.45 | 2:08.47 | 172545 | 182191 18 | 40:29.17 | 2:10.00 | 182192 | 191941 19 | 42:39.17 | 2:29.65 | 191942 | 203181 20 | 45:09.07 | 2:14.55 | 203182 | 213286

Характеристики диапазона извлечения и сообщения об ошибках

Выбранный диапазон

Имя файла D:\Muzika\Jack Scott - Scott On Groove (1989)\Jack Scott - Scott On Groove.wav

Пиковый уровень 100.0 % Скорость извлечения 8.0 X Качество диапазона 100.0 % CRC теста 697F7CEA CRC копии 697F7CEA Копирование... OK

Ошибок не произошло

AccurateRip: сводка

Трек 1 : извлечено точно (доверие 1) [470B8CE3] (AR v1)Трек 2 : извлечено точно (доверие 1) [0F5DE3D7] (AR v1)Трек 3 : извлечено точно (доверие 2) [1D748AC6] (AR v1)Трек 4 : извлечено точно (доверие 2) [7401089C] (AR v1)Трек 5 : извлечено точно (доверие 1) [C73DE35A] (AR v1)Трек 6 : извлечено точно (доверие 2) [6B9F7B19] (AR v1)Трек 7 : извлечено точно (доверие 1) [8E840D02] (AR v1)Трек 8 : извлечено точно (доверие 2) [DF7E5CE2] (AR v1)Трек 9 : извлечено точно (доверие 1) [17EDE475] (AR v1)Трек 10 : извлечено точно (доверие 1) [2F0663E8] (AR v1)Трек 11 : извлечено точно (доверие 1) [AD02E66B] (AR v1)Трек 12 : извлечено точно (доверие 1) [91A8B6A4] (AR v1)Трек 13 : извлечено точно (доверие 1) [DE3EAB70] (AR v1)Трек 14 : извлечено точно (доверие 1) [638576EE] (AR v1)Трек 15 : извлечено точно (доверие 1) [1BD29E32] (AR v1)Трек 16 : извлечено точно (доверие 1) [C40FD80C] (AR v1)Трек 17 : извлечено точно (доверие 1) [70BCB8DE] (AR v1)Трек 18 : извлечено точно (доверие 1) [65E654E8] (AR v1)Трек 19 : извлечено точно (доверие 1) [662909A7] (AR v1)Трек 20 : извлечено точно (доверие 2) [4D53CF03] (AR v1)

Все треки извлечены точно

Конец отчёта

==== Контрольная сумма отчёта 8963E7975EF8C4C93AC4D21BADDFDA19F39BFFCD42A24A7DD83BCB81208F3073 ====


Трекер:  [ 10-Дек-2012 06:35 ]

  

Скачать .torrent

Размер .torrent файла 11 KB


Размер: 269 MB
Хэш (hash) релиза: 3a93a842f63d636169b468e263f735d56169dedb

Еще никто не оставлял запись к записи скачать торрент Jack Scott - Scott On Groove . Будь первым!

!Обратная связь