Скачать через торрент музыку Focus - Focus X - 2012, FLAC бесплатно без регистрации torrent

Если у вас наблюдаются проблемы со скриншотами, переходом по ссылками, скачиванием торрентов - проблемы в блокировщике рекламы AdBlock. #хорошегоДня!


Статистика раздачи
Размер:  396 MB   |    Зарегистрирован:  4 года 8 месяцев   |    .torrent скачан:  11 раз   |   
Раздают:  1  
   
Загрузка...
 
Автор Сообщение

Galfimbul

avatar Galfimbul


Focus / 2012 / Focus X

Жанр: Symphonic Prog
Страна-производитель диска: UK?
Год издания: 2012
Издатель (лейбл): Eastworld Recordings
Номер по каталогу: EW0123CDLTD
Страна: Netherlands
Аудиокодек: FLAC (*.flac)
Тип рипа: image+.cue
Битрейт аудио: lossless
Продолжительность: 00:49:40
Источник (релизер):
Наличие сканов в содержимом раздачи:
Треклист:
1. Father Bachus
2. Focus 10
3. Victoria
4. Amok In Kindergarten
5. All Hens On Deck
6. Birds Come Fly Over (Le Tango)
7. Hoeratio
8. Talk Of The Clown
9. Message Magic
10.Crossroads
Exact Audio Copy V0.99 prebeta 5 from 4. May 2009

Отчёт EAC об извлечении, выполненном 3. декабря 2012, 20:47

Focus / Focus X

Дисковод: Optiarc DVD RW AD-7203S Adapter: 3 ID: 0

Режим чтения : ДостоверностьИспользование точного потока : ДаОтключение кэша аудио : ДаИспользование указателей C2 : Нет

Коррекция смещения при чтении : 48Способность читать области Lead-in и Lead-out : НетЗаполнение пропущенных сэмплов тишиной : ДаУдаление блоков с тишиной в начале и конце : НетПри вычислениях CRC использовались нулевые сэмплы : ДаИнтерфейс : Встроенный Win32-интерфейс для Win NT/2000

Выходной формат : Внутренние WAV-операцииФормат сэмплов : 44.100 Гц; 16 бит; стерео

TOC извлечённого CD

Трек | Старт | Длительность | Начальный сектор | Конечный сектор --------------------------------------------------------------------- 1 | 0:00.00 | 4:03.57 | 0 | 18281 2 | 4:03.57 | 5:48.16 | 18282 | 44397 3 | 9:51.73 | 5:27.68 | 44398 | 68990 4 | 15:19.66 | 5:00.28 | 68991 | 91518 5 | 20:20.19 | 5:44.45 | 91519 | 117363 6 | 26:04.64 | 5:26.06 | 117364 | 141819 7 | 31:30.70 | 5:38.01 | 141820 | 167170 8 | 37:08.71 | 2:58.69 | 167171 | 180589 9 | 40:07.65 | 3:52.49 | 180590 | 198038 10 | 44:00.39 | 5:39.25 | 198039 | 223488

Характеристики диапазона извлечения и сообщения об ошибках

Выбранный диапазон

Имя файла D:\Moole\Focus X\Focus - Focus X.wav

Пиковый уровень 100.0 % Качество диапазона 100.0 % CRC копии D3A7663A Копирование... OK

Ошибок не произошло

Конец отчёта
REM GENRE "Sympho Prog/Netherlands"REM DATE 2012REM DISCID 7B0BA30AREM COMMENT "ExactAudioCopy v0.99pb5"PERFORMER "Focus"TITLE "Focus X"FILE "Focus - Focus X.flac" WAVE TRACK 01 AUDIO TITLE "Father Bacchus" PERFORMER "Focus" INDEX 01 00:00:00 TRACK 02 AUDIO TITLE "Focus 10" PERFORMER "Focus" INDEX 01 04:03:57 TRACK 03 AUDIO TITLE "Victoria" PERFORMER "Focus" INDEX 01 09:51:73 TRACK 04 AUDIO TITLE "Amok in Kindergarten" PERFORMER "Focus" INDEX 01 15:19:66 TRACK 05 AUDIO TITLE "All Hens on Deck" PERFORMER "Focus" INDEX 01 20:20:19 TRACK 06 AUDIO TITLE "Birds Come Fly Over (Le Tango)" PERFORMER "Focus" INDEX 01 26:04:64 TRACK 07 AUDIO TITLE "Hoeratio" PERFORMER "Focus" INDEX 01 31:30:70 TRACK 08 AUDIO TITLE "Talk of the Clown" PERFORMER "Focus" INDEX 01 37:08:71 TRACK 09 AUDIO TITLE "Message Magique" PERFORMER "Focus" INDEX 01 40:07:65 TRACK 10 AUDIO TITLE "Crossroads" PERFORMER "Focus" INDEX 01 44:00:39
-----------------------

DON'T MODIFY THIS FILE

-----------------------

PERFORMER: auCDtect Task Manager, ver. 1.5.1RC6 build 1.5.1.7Copyright (c) 2008-2010 y-soft. All rights reservedhttp://y-soft.org

ANALYZER: auCDtect: CD records authenticity detector, version 0.8.2Copyright (c) 2004 Oleg Berngardt. All rights reserved.Copyright (c) 2004 Alexander Djourik. All rights reserved.

FILE: Focus - Focus X.flac Size: 341954058 Hash: 6BDEED4F0F81F7E6BF867D96474D2F3D Accuracy: -m0 Conclusion: CDDA 100% Signature: 1C5C8526A32BB5E8A91C0601C71BB2070D825E9F
Release Date: 5th November 2012.

"After the band’s return in the 00s, Focus seem to be rather on the go and rejuvenated. Certainly, 6 years since the previous album is a long period but it’s better to be away for some time and come back with something strong, than release albums in a short time period and have nothing to offer eventually. I must confess that I wanted to listen to the album badly, for I like the 70s Focus a lot but I was merely satisfied with their 00s works. In truth to be told, “Focus X” exceeded my expectations and was proven to be a wonderful yet complex but fairly melodic album. Assuredly, albums like this one are not easy-listening and need several spins to grow on you. In contrast, the blending of sweet melodies with the legendary flute, the nice piano themes, the jazz-fusion features along with the technical rhythm section and the killer guitar… will not leave any fan of this genre unsatisfied. The production is crystal clear and smooth… giving the appropriate musical depth for an album like this. The album was mixed by Bram Bol at B-spot Studio, produced by Bobby Jacobs and mastered by Andy Jackson at Tube Mastering. The re-make of “Le Tango”, from Jan Akkerman & Thijs Van Leer’s 1985 “Focus” album, is another example of how a song can be dissimilar but still tasteful even if you have changed its orchestration. Not to forget to mention that the beautiful fantasy cover artwork was designed by the renowned Roger Dean (Yes, Uriah Heep, Asia, Gentle Giant, Budgie, Babe Ruth etc.). If you are wondering what’s all about here… the band did come up with what I can actually call their best work after their comeback in the 00s. A rather brave statement, you might think… but as long as it is true, then there’s no point in hiding the truth. The jazz-fusion elements are bountiful… while the guitars (rhythm & solo) are magnificent. The song arrangements are smart as always and the band has also delivered some truly amazing melodies in the album. Mostly instrumental, “Focus X” will give an extra push to the band so as to go on stronger in the next years. They’ve already announced a worldwide tour and they are not kidding at all. I’m just wondering, at times, if old big bands like Focus come up with such startling new albums, then they’ll definitely make things more difficult for the younger ones in every aspect. Just when I have any second thoughts if 2012 is indeed a prog year… then at least a couple of albums come to put me in my place. I’m sure the prog fans will appreciate this splendid new effort from this great 70s prog band. Can “Focus X” be placed among the band’s 70s masterpieces…? Well, only time can tell… but do not be surprised if it does after some time…"
grande-rock.com
Thijs Van Leer - Hammond Organ, Flute, Vocoder and Vocals
Pierre Van der Linden - Drums
Menno Gootjes - Guitars
Bobby Jacobs - Bass

Special guestы:
Ivan Lins - Vocals on "Birds Come Fly Over (Le Tango)"
Berenice van Leer - Vocals on "Crossroads"
Новый студийный "Х-покус" "фокусников" Нидерландского Королевства

Трекер:  [ 10-Дек-2012 06:35 ]

  

Скачать .torrent

Размер .torrent файла 16 KB


Размер: 396 MB
Хэш (hash) релиза: 2f0c2b0b9bc0872638126cf47aad3838567a077d

Еще никто не оставлял запись к записи скачать торрент Focus - Focus X - 2012, FLAC . Будь первым!

!Обратная связь