Скачать через торрент музыку RPWL - The Gentle Art Of Music бесплатно без регистрации torrent

Если у вас наблюдаются проблемы со скриншотами, переходом по ссылками, скачиванием торрентов - проблемы в блокировщике рекламы AdBlock. #хорошегоДня!


Статистика раздачи
Размер:  904 MB   |    Зарегистрирован:  4 года 8 месяцев   |    .torrent скачан:  23 раза   |   
Раздают:  1  
   
Загрузка...
 
Автор Сообщение

Galfimbul

avatar Galfimbul


RPWL / The Gentle Art Of Music, 2CD [Gatefold], [Paper/Cardboard Sleeve]

Жанр: Neo-Progressive
Страна-производитель диска: Germany
Год издания: 2010
Издатель (лейбл): Gentle Art of Music
Номер по каталогу: GAOM 002
Страна: Germany
Аудиокодек: FLAC (*.flac)
Тип рипа: image+.cue
Битрейт аудио: lossless
Продолжительность: 1:14:47.50 + 0:58:19.11
Источник (релизер): личный диск
Наличие сканов в содержимом раздачи: да
Треклист:
The Gentle Art Of Music - Compilation

01. Hole In The Sky [0:07:31.02]
02. Crazy Lane [0:04:43.54]
03. I Don't Know [0:04:04.71]
04. Home Again [0:08:55.35]
05. The Gentle Art Of Swimming [0:10:19.05]
06. Sun In The Sky [0:04:23.04]
07. Roses [0:06:36.44]
08. Wasted Land [0:04:52.37]
09. 3 Lights [0:08:20.26]
10. Silenced [0:09:55.73]
11. Choose What You Want To Look At [0:05:04.74]

The Gentle Art Of Music - Revisited

01. Sleep [0:06:54.61]
02. Trying To Kiss The Sun [0:06:15.43]
03. Moonflower [0:03:57.07]
04. Watching The World [0:04:03.34]
05. Start The Fire [0:04:21.66]
06. Farewell [0:05:07.74]
07. World Through My Eyes [0:08:15.21]
08. Cake [0:04:16.12]
09. Fool [0:04:55.72]
10. Breathe In, Breathe Out [0:03:41.45]
11. Bound To Reach The End [0:06:29.26]
Exact Audio Copy V1.0 beta 3 from 29. August 2011

Отчёт EAC об извлечении, выполненном 8. декабря 2012, 19:48

Rpwl / The Gentle Art Of Music - Compilation

Дисковод: TSSTcorpCDDVDW TS-L633J Adapter: 0 ID: 1

Режим чтения : ДостоверностьИспользование точного потока : ДаОтключение кэша аудио : ДаИспользование указателей C2 : Нет

Коррекция смещения при чтении : 6Способность читать области Lead-in и Lead-out : НетЗаполнение пропущенных сэмплов тишиной : ДаУдаление блоков с тишиной в начале и конце : НетПри вычислениях CRC использовались нулевые сэмплы : ДаИнтерфейс : Установленный внешний ASPI-интерфейс

Выходной формат : Пользовательский кодировщикВыбранный битрейт : 128 kBit/sКачество : ВысокийДобавление ID3-тега : НетУтилита сжатия : C:\Program Files\Exact Audio Copy\FLAC\FLAC.EXEДополнительные параметры : -6 -V -T "ARTIST=%artist%" -T "TITLE=%title%" -T "ALBUM=%albumtitle%" -T "DATE=%year%" -T "TRACKNUMBER=%tracknr%" -T "GENRE=%genre%" -T "COMMENT=%comment%" -T "BAND=%albuminterpret%" -T "ALBUMARTIST=%albuminterpret%" -T "COMPOSER=%composer%" %haslyrics%--tag-from-file=LYRICS="%lyricsfile%"%haslyrics% -T "DISCNUMBER=%cdnumber%" -T "TOTALDISCS=%totalcds%" -T "TOTALTRACKS=%numtracks%" %hascover%--picture="%coverfile%"%hascover% %source% -o %dest%

TOC извлечённого CD

Трек | Старт | Длительность | Начальный сектор | Конечный сектор --------------------------------------------------------------------- 1 | 0:00.00 | 7:31.02 | 0 | 33826 2 | 7:31.02 | 4:43.54 | 33827 | 55105 3 | 12:14.56 | 4:04.71 | 55106 | 73476 4 | 16:19.52 | 8:55.35 | 73477 | 113636 5 | 25:15.12 | 10:19.05 | 113637 | 160066 6 | 35:34.17 | 4:23.04 | 160067 | 179795 7 | 39:57.21 | 6:36.44 | 179796 | 209539 8 | 46:33.65 | 4:52.37 | 209540 | 231476 9 | 51:26.27 | 8:20.26 | 231477 | 269002 10 | 59:46.53 | 9:55.73 | 269003 | 313700 11 | 69:42.51 | 5:04.74 | 313701 | 336574

Характеристики диапазона извлечения и сообщения об ошибках

Выбранный диапазон

Имя файла D:\РИПЫ\RPWL\cd1 compilation\Rpwl - The Gentle Art Of Music - Compilation.wav

Пиковый уровень 100.0 % Скорость извлечения 3.4 X Качество диапазона 99.9 % CRC теста 37351A82 CRC копии 37351A82 Копирование... OK

Ошибок не произошло

AccurateRip: сводка

Трек 1 отсутствует в базе данныхТрек 2 отсутствует в базе данныхТрек 3 отсутствует в базе данныхТрек 4 отсутствует в базе данныхТрек 5 отсутствует в базе данныхТрек 6 отсутствует в базе данныхТрек 7 отсутствует в базе данныхТрек 8 отсутствует в базе данныхТрек 9 отсутствует в базе данныхТрек 10 отсутствует в базе данныхТрек 11 отсутствует в базе данных

Ни одного трека нет в базе AccurateRip

Конец отчёта

---- CUETools DB Plugin V2.1.3

[CTDB TOCID: MKFgUPd7q3gyMX_Yd1qVOZqQLx4-] found, Submit result: MKFgUPd7q3gyMX_Yd1qVOZqQLx4- has been confirmed[3dbe2951] (14/14) Accurately ripped

==== Контрольная сумма отчёта 4712D4F5149EF6B6409399984D63FC98A0C96F9F7140CA6E527CF053E2ECF9AD ====

Exact Audio Copy V1.0 beta 3 from 29. August 2011

Отчёт EAC об извлечении, выполненном 8. декабря 2012, 20:30

Rpwl / The Gentle Art Of Music - Revisited

Дисковод: TSSTcorpCDDVDW TS-L633J Adapter: 0 ID: 1

Режим чтения : ДостоверностьИспользование точного потока : ДаОтключение кэша аудио : ДаИспользование указателей C2 : Нет

Коррекция смещения при чтении : 6Способность читать области Lead-in и Lead-out : НетЗаполнение пропущенных сэмплов тишиной : ДаУдаление блоков с тишиной в начале и конце : НетПри вычислениях CRC использовались нулевые сэмплы : ДаИнтерфейс : Установленный внешний ASPI-интерфейс

Выходной формат : Пользовательский кодировщикВыбранный битрейт : 128 kBit/sКачество : ВысокийДобавление ID3-тега : НетУтилита сжатия : C:\Program Files\Exact Audio Copy\FLAC\FLAC.EXEДополнительные параметры : -6 -V -T "ARTIST=%artist%" -T "TITLE=%title%" -T "ALBUM=%albumtitle%" -T "DATE=%year%" -T "TRACKNUMBER=%tracknr%" -T "GENRE=%genre%" -T "COMMENT=%comment%" -T "BAND=%albuminterpret%" -T "ALBUMARTIST=%albuminterpret%" -T "COMPOSER=%composer%" %haslyrics%--tag-from-file=LYRICS="%lyricsfile%"%haslyrics% -T "DISCNUMBER=%cdnumber%" -T "TOTALDISCS=%totalcds%" -T "TOTALTRACKS=%numtracks%" %hascover%--picture="%coverfile%"%hascover% %source% -o %dest%

TOC извлечённого CD

Трек | Старт | Длительность | Начальный сектор | Конечный сектор --------------------------------------------------------------------- 1 | 0:00.00 | 6:54.61 | 0 | 31110 2 | 6:54.61 | 6:15.43 | 31111 | 59278 3 | 13:10.29 | 3:57.07 | 59279 | 77060 4 | 17:07.36 | 4:03.34 | 77061 | 95319 5 | 21:10.70 | 4:21.66 | 95320 | 114960 6 | 25:32.61 | 5:07.74 | 114961 | 138059 7 | 30:40.60 | 8:15.21 | 138060 | 175205 8 | 38:56.06 | 4:16.12 | 175206 | 194417 9 | 43:12.18 | 4:55.72 | 194418 | 216614 10 | 48:08.15 | 3:41.45 | 216615 | 233234 11 | 51:49.60 | 6:29.26 | 233235 | 262435

Характеристики диапазона извлечения и сообщения об ошибках

Выбранный диапазон

Имя файла D:\РИПЫ\RPWL\cd2 revisited\Rpwl - The Gentle Art Of Music - Revisited.wav

Пиковый уровень 97.7 % Скорость извлечения 2.9 X Качество диапазона 100.0 % CRC теста 80819B52 CRC копии 80819B52 Копирование... OK

Ошибок не произошло

AccurateRip: сводка

Трек 1 отсутствует в базе данныхТрек 2 отсутствует в базе данныхТрек 3 отсутствует в базе данныхТрек 4 отсутствует в базе данныхТрек 5 отсутствует в базе данныхТрек 6 отсутствует в базе данныхТрек 7 отсутствует в базе данныхТрек 8 отсутствует в базе данныхТрек 9 отсутствует в базе данныхТрек 10 отсутствует в базе данныхТрек 11 отсутствует в базе данных

Ни одного трека нет в базе AccurateRip

Конец отчёта

---- CUETools DB Plugin V2.1.3

[CTDB TOCID: lj0a1cMqeFYMrg8bttZdItgECfU-] found, Submit result: lj0a1cMqeFYMrg8bttZdItgECfU- has been confirmed[fd0f91ec] (16/16) Accurately ripped

==== Контрольная сумма отчёта 1CA80858A9B25F5F40F4440FFA6DACA0A46016D000C58858BE2E7C4F2E73CDA0 ====
RPWL biography
RPWL (Risettion Postl Wallner Lung - the band members) is a German progressive rock band. The band was formed in 1997 as a Pink Floyd cover band. After three years they started to make their own music based on their influences from their cover band era. Their debut CD, God Has Failed was met with international enthusiasm, praise and excellent reviews in all the major progressive rock music magazines.

The band wanted to make a statement with Trying To Kiss The Sun in 2002, which relied more on the band as a creative entity and less on their influences. Their 3rd studio album, Stock was released in 2003. It was formed of the tracks that didn't make it onto the first 2 albums, plus a cover of Syd Barrett's "Opel", which the band used at shows as a soundcheck.

In 2005 they released their 4th studio album World Through My Eyes. This was received well by fans and off it their first single was taken- "Roses" sung by former Genesis and Stiltskin vocalist Ray Wilson.

Later that year, the band released their 1st live album Live- Start The Fire. The double disc album contains the whole of the band's Rockpalast concert, again featuring Ray Wilson on lead vocals for "Roses" and one other track this time, "Not About Us", which is from Ray's one and only album with Genesis entitled Calling All Stations.

In 2007, saw the release of 9--a compilation including 5 previously unreleased live songs and 4 brand new solo songs recorded together by the band. Those studio-tracks are representing the different influences in the band. 9 was released in a limited edition of 999 CDs and was only available from their website.

In February 2008, they released a new album called The RPWL Experience, which diverted greatly from previous efforts. Martien Koolen of DPRP writes, "The southern German prog rock band certainly explores new musical horizons on this album as some songs even sound raw and unpolished."

Eric Walker (USA)

http://www.progarchives.com/artist.asp?id=298
For fans Blind Ego, Parzivals Eye, Violet District.
Disc 1 is a "Best of" compilation. Disc 2 contains some of the other tracks in reworked versions. Some of them in very different arrangements. The music would get a 4/5, but as it is a compilation I give it a 3.5/4. Conclusion: Good for starters and hardcore fans.
- Yogi Lang / vocals, keyboards
- Kalle Wallner / guitar, vocals
- Marc Tauriaux / drums
- Chris Postl / bass, vocals
- Markus Jehle / keyboards
- Phil Paul Risettio / drums
- Manfred Müller / drums
- Andreas Wernthaler / keyboards
- Stephan Ebner / bass

guest musicians:
- Manasvee Mezz / Indian instruments
- Tom Norris / violin, viola
- Jost Hecker / cello
- Ray Wilson / vocals
- Conny Kreitmeier / vocals
- Bine Heller / vocals
- Julia Schröter / vocals
- Mehmet Bayrakcoglu / saz
- Ferdinand Settele / saxophone
- Manu Delago / hang


Трекер:  [ 10-Дек-2012 06:35 ]

  

Скачать .torrent

Размер .torrent файла 19 KB


Размер: 904 MB
Хэш (hash) релиза: c4b904eff457348062d54690957a170034ba21ba

Еще никто не оставлял запись к записи скачать торрент RPWL - The Gentle Art Of Music . Будь первым!

!Обратная связь