Скачать через торрент музыку Lover Under Cover бесплатно без регистрации torrent

Если у вас наблюдаются проблемы со скриншотами, переходом по ссылками, скачиванием торрентов - проблемы в блокировщике рекламы AdBlock. #хорошегоДня!


Статистика раздачи
Размер:  440 MB   |    Зарегистрирован:  4 года 8 месяцев   |    .torrent скачан:  25 раз   |   
Раздают:  1  
   
Загрузка...
 
Автор Сообщение

Galfimbul

avatar Galfimbul


Lover Under Cover / Set The Night On Fire (2012)

Жанр: Melodic Hard Rock
Страна-производитель диска: Japan
Год издания: 2012
Издатель (лейбл): Rubicon
Номер по каталогу: RBNCD-1115
Страна: Sweden
Аудиокодек: FLAC (*.flac)
Тип рипа: image+.cue
Битрейт аудио: lossless
Продолжительность: 49:57
Источник (релизер): собственный рип
Наличие сканов в содержимом раздачи: да

Треклист:
1. My Best Friend - 3:41
2. Angels Will Cry - 4:32
3. To Good To Be True - 3:57
4. Hero - 4:57
5. Flash In The Night (Secret Service cover) - 4:51
6. Set The Night On Fire - 4:33
7. Who Needs Love - 3:48
8. Crazy For You - 3:55
9. Standing In The Line - 4:14
10. Through The Storm - 4:19
11. A Nice Day - 2:56
12. Rain Of Tears - 4:14 (bonus track for Japan)
Exact Audio Copy V1.0 beta 3 from 29. August 2011

EAC extraction logfile from 8. December 2012, 18:30

Lover Under Cover / Set The Night On Fire

Used drive : SlimtypeDVD A DS8A5SH Adapter: 0 ID: 1

Read mode : SecureUtilize accurate stream : YesDefeat audio cache : YesMake use of C2 pointers : No

Read offset correction : 6Overread into Lead-In and Lead-Out : NoFill up missing offset samples with silence : YesDelete leading and trailing silent blocks : NoNull samples used in CRC calculations : YesUsed interface : Native Win32 interface for Win NT & 2000

Used output format : User Defined EncoderSelected bitrate : 320 kBit/sQuality : HighAdd ID3 tag : NoCommand line compressor : C:\Program Files (x86)\Exact Audio Copy\Flac\flac.exeAdditional command line options : -V -8 -T "Date=%year%" -T "Genre=%genre%" %source%

TOC of the extracted CD

Track | Start | Length | Start sector | End sector --------------------------------------------------------- 1 | 0:00.00 | 3:40.59 | 0 | 16558 2 | 3:40.59 | 4:31.60 | 16559 | 36943 3 | 8:12.44 | 4:13.56 | 36944 | 55974 4 | 12:26.25 | 4:56.70 | 55975 | 78244 5 | 17:23.20 | 4:50.65 | 78245 | 100059 6 | 22:14.10 | 4:33.16 | 100060 | 120550 7 | 26:47.26 | 3:57.17 | 120551 | 138342 8 | 30:44.43 | 3:55.05 | 138343 | 155972 9 | 34:39.48 | 3:48.19 | 155973 | 173091 10 | 38:27.67 | 4:18.74 | 173092 | 192515 11 | 42:46.66 | 2:56.02 | 192516 | 205717 12 | 45:42.68 | 4:13.72 | 205718 | 224764

Range status and errors

Selected range

Filename D:\My Music\Lover Under Cover - 2012 Set The Night On Fire\Lover Under Cover - Set The Night On Fire.wav

Peak level 99.9 % Extraction speed 4.4 X Range quality 100.0 % Test CRC EC915E5E Copy CRC EC915E5E Copy OK

No errors occurred

AccurateRip summary

Track 1 not present in databaseTrack 2 not present in databaseTrack 3 not present in databaseTrack 4 not present in databaseTrack 5 not present in databaseTrack 6 not present in databaseTrack 7 not present in databaseTrack 8 not present in databaseTrack 9 not present in databaseTrack 10 not present in databaseTrack 11 not present in databaseTrack 12 not present in database

None of the tracks are present in the AccurateRip database

End of status report

==== Log checksum 76702D538171F31761DCD472E89463F11B5AEEE4F2B30833188EED5AA56DD602 ====
Mikael Erlandsson (Last Autumn's Dream, Phenomena) vocals, keyboards
Mikael Carlsson bass, guitars, keyboards, vocals
Martin Kronlund (Gipsy Rose, Overland, Phenomena) guitars
Perra Johnsson (Coldspell) drums

Ged Ryland (Ten) keyboards on "My Best Friend"
Tor Erik Myhre (Jorn) guitar on "Hero"
Michael Larsson (Coldspell) guitar on "Rain Of Tears"
Katarina Hager vocal on "Hero"
Elias and Melinda children choir on "Flash In The Night"


Трекер:  [ 10-Дек-2012 06:33 ]

  

Скачать .torrent

Размер .torrent файла 18 KB


Размер: 440 MB
Хэш (hash) релиза: 91a81c87658e3e882d9a02f8479f36eb663c980c

Еще никто не оставлял запись к записи скачать торрент Lover Under Cover . Будь первым!

!Обратная связь