Скачать через торрент музыку VA - Loving You - 2010, FLAC бесплатно без регистрации torrent

Если у вас наблюдаются проблемы со скриншотами, переходом по ссылками, скачиванием торрентов - проблемы в блокировщике рекламы AdBlock. #хорошегоДня!


Статистика раздачи
Размер:  1.56 GB   |    Зарегистрирован:  4 года 8 месяцев   |    .torrent скачан:  27 раз   |   
Раздают:  1  
   
Загрузка...
 
Автор Сообщение

Galfimbul

avatar Galfimbul


Various Artists - Loving You

Жанр: Pop Rock, Soft Rock, Hard Rock
Страна-производитель диска: UK
Год издания: 2010
Издатель (лейбл): Rhino UK
Аудиокодек: FLAC (*.flac)
Тип рипа: tracks+.cue
Битрейт аудио: lossless
Продолжительность: 01:19:22+01:19:37+01:19:22
Источник (релизер): Собственный рип
Наличие сканов в содержимом раздачи: да
1. Michael Buble - Haven't met you Yet
2. James Blunt - You're Beautiful
3. Paolo Nutini - Candy
4. Alesha Dixon - To Love Again
5. Peter Andre - Behind Closed Doors
6. Josh Radin - I'd Rather be with You
7. Eveything But The Girl - I Dont Want to Talk About It
8. Craig David - World Filled With Love
9. All Saints - Never Ever
10. Bread - Make It With you
11. Aha - Take On Me
12. Hall and Oates - She's Gone
13. Pretenders - Ill Stand by You
14. Eric Carmen - All by Myself
15. East 17 - Stay Another Day
16. Chaka Khan - Ain't Nobody
17. Aretha Franklin - Say a Little Prayer
18. Brandy and Monica - The Boy is Mine
19. The Cars - Drive
20. R.E.M. - At my Most Beautiful
Exact Audio Copy V1.0 beta 3 from 29. August 2011

EAC extraction logfile from 8. December 2012, 12:30

- / Loving You CD1

Used drive : Optiarc DVD RW AD-7243S Adapter: 1 ID: 1

Read mode : Secure
Utilize accurate stream : Yes
Defeat audio cache : Yes
Make use of C2 pointers : No

Read offset correction : 48
Overread into Lead-In and Lead-Out : No
Fill up missing offset samples with silence : Yes
Delete leading and trailing silent blocks : No
Null samples used in CRC calculations : Yes
Used interface : Native Win32 interface for Win NT & 2000
Gap handling : Appended to previous track

Used output format : User Defined Encoder
Selected bitrate : 1024 kBit/s
Quality : High
Add ID3 tag : No
Command line compressor : C:\Program Files\Exact Audio Copy\FLAC\FLAC.EXE
Additional command line options : -V -8 -T "Artist=%artist%" -T "Title=%title%" -T "Album=%albumtitle%" -T "Date=%year%" -T "Tracknumber=%tracknr%" -T "Comment=%comment%" %source%

TOC of the extracted CD

Track | Start | Length | Start sector | End sector
---------------------------------------------------------
1 | 0:00.00 | 4:04.27 | 0 | 18326
2 | 4:04.27 | 3:29.07 | 18327 | 34008
3 | 7:33.34 | 4:56.15 | 34009 | 56223
4 | 12:29.49 | 3:44.03 | 56224 | 73026
5 | 16:13.52 | 3:23.42 | 73027 | 88293
6 | 19:37.19 | 2:47.02 | 88294 | 100820
7 | 22:24.21 | 4:12.63 | 100821 | 119783
8 | 26:37.09 | 3:36.51 | 119784 | 136034
9 | 30:13.60 | 4:14.40 | 136035 | 155124
10 | 34:28.25 | 3:09.61 | 155125 | 169360
11 | 37:38.11 | 3:41.71 | 169361 | 186006
12 | 41:20.07 | 5:13.16 | 186007 | 209497
13 | 46:33.23 | 3:52.45 | 209498 | 226942
14 | 50:25.68 | 4:05.22 | 226943 | 245339
15 | 54:31.15 | 4:25.50 | 245340 | 265264
16 | 58:56.65 | 4:33.43 | 265265 | 285782
17 | 63:30.33 | 3:32.08 | 285783 | 301690
18 | 67:02.41 | 4:55.37 | 301691 | 323852
19 | 71:58.03 | 3:52.68 | 323853 | 341320
20 | 75:50.71 | 3:31.53 | 341321 | 357198

Track 1

Filename J:\torrents\Various Artists - Loving You\CD1\01. Michael Bublé - Haven't Met You Yet.wav

Pre-gap length 0:00:02.00

Peak level 93.1 %
Extraction speed 2.2 X
Track quality 99.9 %
Test CRC 6CCCD43C
Copy CRC 6CCCD43C
Accurately ripped (confidence 1) [FEAACC6F] (AR v2)
Copy OK

Track 2

Filename J:\torrents\Various Artists - Loving You\CD1\02. James Blunt - You're Beautiful.wav

Pre-gap length 0:00:00.37

Peak level 98.8 %
Extraction speed 2.7 X
Track quality 100.0 %
Test CRC 01C456C2
Copy CRC 01C456C2
Accurately ripped (confidence 1) [73062BC8] (AR v2)
Copy OK

Track 3

Filename J:\torrents\Various Artists - Loving You\CD1\03. Paolo Nutini - Candy.wav

Pre-gap length 0:00:00.07

Peak level 98.9 %
Extraction speed 3.1 X
Track quality 100.0 %
Test CRC 72B9D511
Copy CRC 72B9D511
Accurately ripped (confidence 1) [8551659E] (AR v2)
Copy OK

Track 4

Filename J:\torrents\Various Artists - Loving You\CD1\04. Alesha Dixon - To Love Again.wav

Pre-gap length 0:00:01.00

Peak level 96.7 %
Extraction speed 3.1 X
Track quality 100.0 %
Test CRC 7F4DCA60
Copy CRC 7F4DCA60
Accurately ripped (confidence 1) [BD460F19] (AR v2)
Copy OK

Track 5

Filename J:\torrents\Various Artists - Loving You\CD1\05. Peter Andre - Behind Closed Doors.wav

Pre-gap length 0:00:01.00

Peak level 98.8 %
Extraction speed 3.3 X
Track quality 100.0 %
Test CRC 9EFE58DE
Copy CRC 9EFE58DE
Accurately ripped (confidence 1) [D77C05F9] (AR v2)
Copy OK

Track 6

Filename J:\torrents\Various Artists - Loving You\CD1\06. Joshua Radin - I'd Rather Be With You.wav

Pre-gap length 0:00:01.00

Peak level 98.8 %
Extraction speed 3.3 X
Track quality 100.0 %
Test CRC F407821A
Copy CRC F407821A
Accurately ripped (confidence 1) [720339A6] (AR v2)
Copy OK

Track 7

Filename J:\torrents\Various Artists - Loving You\CD1\07. Everything But the Girl - I Don't Want to Talk About It.wav

Pre-gap length 0:00:01.00

Peak level 98.8 %
Extraction speed 3.6 X
Track quality 100.0 %
Test CRC 9DD43049
Copy CRC 9DD43049
Accurately ripped (confidence 1) [9CCF3954] (AR v2)
Copy OK

Track 8

Filename J:\torrents\Various Artists - Loving You\CD1\08. Craig David - World Filled With Love.wav

Pre-gap length 0:00:01.00

Peak level 92.3 %
Extraction speed 3.7 X
Track quality 100.0 %
Test CRC E89EDA94
Copy CRC E89EDA94
Accurately ripped (confidence 1) [521A2865] (AR v2)
Copy OK

Track 9

Filename J:\torrents\Various Artists - Loving You\CD1\09. All Saints - Never Ever.wav

Pre-gap length 0:00:01.00

Peak level 98.9 %
Extraction speed 3.9 X
Track quality 100.0 %
Test CRC A70E6D78
Copy CRC A70E6D78
Accurately ripped (confidence 1) [F8CE1340] (AR v2)
Copy OK

Track 10

Filename J:\torrents\Various Artists - Loving You\CD1\10. Bread - Make It With You.wav

Pre-gap length 0:00:01.00

Peak level 98.8 %
Extraction speed 3.9 X
Track quality 100.0 %
Test CRC F2386A9D
Copy CRC F2386A9D
Accurately ripped (confidence 1) [5DFA085D] (AR v2)
Copy OK

Track 11

Filename J:\torrents\Various Artists - Loving You\CD1\11. A-Ha - Take On Me.wav

Pre-gap length 0:00:01.00

Peak level 98.9 %
Extraction speed 4.2 X
Track quality 100.0 %
Test CRC F321A2EC
Copy CRC F321A2EC
Accurately ripped (confidence 1) [64DAC68E] (AR v2)
Copy OK

Track 12

Filename J:\torrents\Various Artists - Loving You\CD1\12. Daryl Hall & John Oates7 - She's Gone.wav

Pre-gap length 0:00:01.00

Peak level 98.8 %
Extraction speed 4.5 X
Track quality 100.0 %
Test CRC AF145DC9
Copy CRC AF145DC9
Accurately ripped (confidence 1) [9CB34D0A] (AR v2)
Copy OK

Track 13

Filename J:\torrents\Various Artists - Loving You\CD1\13. Pretenders - I'll Stand By You.wav

Pre-gap length 0:00:01.00

Peak level 98.8 %
Extraction speed 4.5 X
Track quality 100.0 %
Test CRC F0CD8579
Copy CRC F0CD8579
Accurately ripped (confidence 1) [C5E03802] (AR v2)
Copy OK

Track 14

Filename J:\torrents\Various Artists - Loving You\CD1\14. Eric Carmen - All By Myself.wav

Pre-gap length 0:00:01.00

Peak level 98.8 %
Extraction speed 4.6 X
Track quality 100.0 %
Test CRC 43CC8A16
Copy CRC 43CC8A16
Accurately ripped (confidence 1) [BA558C38] (AR v2)
Copy OK

Track 15

Filename J:\torrents\Various Artists - Loving You\CD1\15. East 17 - Stay Another Day.wav

Pre-gap length 0:00:01.00

Peak level 98.3 %
Extraction speed 4.9 X
Track quality 100.0 %
Test CRC F401435F
Copy CRC F401435F
Accurately ripped (confidence 1) [B52A150B] (AR v2)
Copy OK

Track 16

Filename J:\torrents\Various Artists - Loving You\CD1\16. Chaka Khan - Ain't Nobody.wav

Pre-gap length 0:00:01.00

Peak level 96.2 %
Extraction speed 4.5 X
Track quality 99.9 %
Test CRC 7AA5AFFD
Copy CRC 7AA5AFFD
Accurately ripped (confidence 1) [A8425268] (AR v2)
Copy OK

Track 17

Filename J:\torrents\Various Artists - Loving You\CD1\17. Aretha Franklin - I Say a Little Prayer.wav

Pre-gap length 0:00:01.00

Peak level 98.9 %
Extraction speed 5.0 X
Track quality 100.0 %
Test CRC 56D50518
Copy CRC 56D50518
Accurately ripped (confidence 1) [99484652] (AR v2)
Copy OK

Track 18

Filename J:\torrents\Various Artists - Loving You\CD1\18. Brandy feat. Monica - The Boy is Mine.wav

Pre-gap length 0:00:01.00

Peak level 98.8 %
Extraction speed 4.8 X
Track quality 99.9 %
Test CRC 62898E3E
Copy CRC 62898E3E
Accurately ripped (confidence 1) [35E10013] (AR v2)
Copy OK

Track 19

Filename J:\torrents\Various Artists - Loving You\CD1\19. The Cars - Drive.wav

Pre-gap length 0:00:01.00

Peak level 76.1 %
Extraction speed 5.2 X
Track quality 100.0 %
Test CRC D69FEA97
Copy CRC D69FEA97
Accurately ripped (confidence 1) [8A1C2F2F] (AR v2)
Copy OK

Track 20

Filename J:\torrents\Various Artists - Loving You\CD1\20. R.E.M. - At My Most Beautiful.wav

Pre-gap length 0:00:01.00

Peak level 98.8 %
Extraction speed 5.4 X
Track quality 100.0 %
Test CRC A7726972
Copy CRC A7726972
Accurately ripped (confidence 1) [37482231] (AR v2)
Copy OK

All tracks accurately ripped

No errors occurred

End of status report
REM GENRE Love
REM DATE 2010
REM DISCID 1F129A14
REM COMMENT "ExactAudioCopy v1.0b3"
PERFORMER ""
TITLE "Loving You CD1"
FILE "01. Michael Buble - Haven't Met You Yet.wav" WAVE
TRACK 01 AUDIO
TITLE "Haven't Met You Yet "
PERFORMER "Michael Buble"
INDEX 01 00:00:00
TRACK 02 AUDIO
TITLE "You're Beautiful"
PERFORMER "James Blunt"
INDEX 00 04:03:65
FILE "02. James Blunt - You're Beautiful.wav" WAVE
INDEX 01 00:00:00
TRACK 03 AUDIO
TITLE "Candy"
PERFORMER "Paolo Nutini"
INDEX 00 03:29:00
FILE "03. Paolo Nutini - Candy.wav" WAVE
INDEX 01 00:00:00
TRACK 04 AUDIO
TITLE "To Love Again "
PERFORMER "Alesha Dixon"
INDEX 00 04:55:15
FILE "04. Alesha Dixon - To Love Again.wav" WAVE
INDEX 01 00:00:00
TRACK 05 AUDIO
TITLE "Behind Closed Doors"
PERFORMER "Peter Andre"
INDEX 00 03:43:03
FILE "05. Peter Andre - Behind Closed Doors.wav" WAVE
INDEX 01 00:00:00
TRACK 06 AUDIO
TITLE "I'd Rather Be With You "
PERFORMER "Joshua Radin"
INDEX 00 03:22:42
FILE "06. Joshua Radin - I'd Rather Be With You.wav" WAVE
INDEX 01 00:00:00
TRACK 07 AUDIO
TITLE "I Don't Want to Talk About It "
PERFORMER "Everything But the Girl"
INDEX 00 02:46:02
FILE "07. Everything But the Girl - I Don't Want to Talk About It.wav" WAVE
INDEX 01 00:00:00
TRACK 08 AUDIO
TITLE "World Filled With Love "
PERFORMER "Craig David"
INDEX 00 04:11:63
FILE "08. Craig David - World Filled With Love.wav" WAVE
INDEX 01 00:00:00
TRACK 09 AUDIO
TITLE "Never Ever"
PERFORMER "All Saints"
INDEX 00 03:35:51
FILE "09. All Saints - Never Ever.wav" WAVE
INDEX 01 00:00:00
TRACK 10 AUDIO
TITLE "Make It With You "
PERFORMER "Bread"
INDEX 00 04:13:40
FILE "10. Bread - Make It With You.wav" WAVE
INDEX 01 00:00:00
TRACK 11 AUDIO
TITLE "Take On Me "
PERFORMER "A-Ha"
INDEX 00 03:08:61
FILE "11. A-Ha - Take On Me.wav" WAVE
INDEX 01 00:00:00
TRACK 12 AUDIO
TITLE "She's Gone"
PERFORMER "Daryl Hall & John Oates7"
INDEX 00 03:40:71
FILE "12. Daryl Hall & John Oates7 - She's Gone.wav" WAVE
INDEX 01 00:00:00
TRACK 13 AUDIO
TITLE "I'll Stand By You "
PERFORMER "Pretenders"
INDEX 00 05:12:16
FILE "13. Pretenders - I'll Stand By You.wav" WAVE
INDEX 01 00:00:00
TRACK 14 AUDIO
TITLE "All By Myself"
PERFORMER "Eric Carmen"
INDEX 00 03:51:45
FILE "14. Eric Carmen - All By Myself.wav" WAVE
INDEX 01 00:00:00
TRACK 15 AUDIO
TITLE "Stay Another Day "
PERFORMER "East 17"
INDEX 00 04:04:22
FILE "15. East 17 - Stay Another Day.wav" WAVE
INDEX 01 00:00:00
TRACK 16 AUDIO
TITLE "Ain't Nobody"
PERFORMER "Chaka Khan"
INDEX 00 04:24:50
FILE "16. Chaka Khan - Ain't Nobody.wav" WAVE
INDEX 01 00:00:00
TRACK 17 AUDIO
TITLE "I Say a Little Prayer"
PERFORMER "Aretha Franklin"
INDEX 00 04:32:43
FILE "17. Aretha Franklin - I Say a Little Prayer.wav" WAVE
INDEX 01 00:00:00
TRACK 18 AUDIO
TITLE "The Boy is Mine"
PERFORMER "Brandy feat. Monica"
INDEX 00 03:31:08
FILE "18. Brandy feat. Monica - The Boy is Mine.wav" WAVE
INDEX 01 00:00:00
TRACK 19 AUDIO
TITLE "Drive"
PERFORMER "The Cars"
INDEX 00 04:54:37
FILE "19. The Cars - Drive.wav" WAVE
INDEX 01 00:00:00
TRACK 20 AUDIO
TITLE "At My Most Beautiful "
PERFORMER "R.E.M."
INDEX 00 03:51:68
FILE "20. R.E.M. - At My Most Beautiful.wav" WAVE
INDEX 01 00:00:00
-----------------------

DON'T MODIFY THIS FILE

-----------------------

PERFORMER: auCDtect Task Manager, ver. 1.5.1RC4 build 1.5.1.5
Copyright (c) 2008-2010 y-soft. All rights reserved
http://y-soft.org

ANALYZER: auCDtect: CD records authenticity detector, version 0.8.2
Copyright (c) 2004 Oleg Berngardt. All rights reserved.
Copyright (c) 2004 Alexander Djourik. All rights reserved.

FILE: 01. Michael Bublé - Haven't Met You Yet.flac
Size: 30954256 Hash: BC2332010CEB0D22719261496DBAFD22 Accuracy: -m0
Conclusion: CDDA 100%
Signature: 89C1489E4D4D018E69D84732215099FD51C25D45
FILE: 02. James Blunt - You're Beautiful.flac
Size: 23663697 Hash: 378B4D5E9559FEE569364FE34F22B996 Accuracy: -m0
Conclusion: CDDA 100%
Signature: E428BC67DD995326ECF487B738F428C1AF4C6AC6
FILE: 03. Paolo Nutini - Candy.flac
Size: 34766362 Hash: BE184E07AD0B3C72984AFB9F4499CF16 Accuracy: -m0
Conclusion: CDDA 100%
Signature: 4A5911CD1A9BF3FE5CA63312EEE3E05F4F00706C
FILE: 04. Alesha Dixon - To Love Again.flac
Size: 27826140 Hash: AE2958C8A3F2C7688F4B24D0D8474569 Accuracy: -m0
Conclusion: CDDA 100%
Signature: AE773429933BCC683AB5710C6953D8B910EFEF67
FILE: 05. Peter Andre - Behind Closed Doors.flac
Size: 25359558 Hash: 79963B7F1FB59E2A59BD125AAB73779B Accuracy: -m0
Conclusion: CDDA 100%
Signature: B72E1A5475E756CCAA06E55131E309EC4D908C1F
FILE: 06. Joshua Radin - I'd Rather Be With You.flac
Size: 19260610 Hash: F6AD017FCD4CF625CBDB405A1950DBF1 Accuracy: -m0
Conclusion: CDDA 100%
Signature: 9E885B7BF16F000885395138708B396C0F9DCF00
FILE: 07. Everything But the Girl - I Don't Want to Talk About It.flac
Size: 29419257 Hash: E708C4089AF52F7CA80D9F016AB15B09 Accuracy: -m0
Conclusion: CDDA 100%
Signature: BF46DAD6104DD56653643BD31E1A161A0BF4906F
FILE: 08. Craig David - World Filled With Love.flac
Size: 26000357 Hash: D7C9E577E62C59A7EA37CF101770FDA4 Accuracy: -m0
Conclusion: CDDA 100%
Signature: C759CD589D7967F0AFD414396761685A2DD1C7CF
FILE: 09. All Saints - Never Ever.flac
Size: 30912692 Hash: 6C98E362971752AD68974C1F967EE58B Accuracy: -m0
Conclusion: CDDA 100%
Signature: E69EA9633AD8CA0BDCF55BAF1F7EAF27D1D2AF7C
FILE: 10. Bread - Make It With You.flac
Size: 20576456 Hash: 72610FAEEA66143710D413148487ECDC Accuracy: -m0
Conclusion: CDDA 100%
Signature: F8A4266900B0C3707281E22B5A89AA2051D22CBC
FILE: 11. A-Ha - Take On Me.flac
Size: 27719599 Hash: 943E42EB28AB2E5B5095A6A3513E7699 Accuracy: -m0
Conclusion: CDDA 99%
Signature: 6497F9C9059FBAE5DB834F6DA7C3A0DADCD19645
FILE: 12. Daryl Hall & John Oates7 - She's Gone.flac
Size: 37050197 Hash: 15AEB3D95529DD5FF6B2123E49234BE3 Accuracy: -m0
Conclusion: CDDA 100%
Signature: CDD13422D2AD5F63D8EA981B298AF51BECA6EE15
FILE: 13. Pretenders - I'll Stand By You.flac
Size: 28496605 Hash: 3B34C92C2DDCD4928EA39922C355B093 Accuracy: -m0
Conclusion: CDDA 100%
Signature: F6D59DD5F92BAC890D9182421131BCC7FC5395B9
FILE: 14. Eric Carmen - All By Myself.flac
Size: 25245709 Hash: E7B8B0A0EEA85C2D3602D3DD34FEFD72 Accuracy: -m0
Conclusion: CDDA 100%
Signature: 86FD1F4ED3EEBC381A0A9F134C99FF8BC7C10CC1
FILE: 15. East 17 - Stay Another Day.flac
Size: 31790333 Hash: 1F484F6BBBB9FE60861F3E6DBEBFD126 Accuracy: -m0
Conclusion: CDDA 100%
Signature: 1A80ADEA1EBDA5F37B678A9CB30969FF03F72371
FILE: 16. Chaka Khan - Ain't Nobody.flac
Size: 31174420 Hash: 3D5BD92FF212BF6FD874551C7CAF0FA5 Accuracy: -m0
Conclusion: CDDA 100%
Signature: 4A9188870E854E42BCD5F60D00EE28B520A6664D
FILE: 17. Aretha Franklin - I Say a Little Prayer.flac
Size: 24812177 Hash: 7ED96F04F88E7BB101F64B4FA77F4E95 Accuracy: -m0
Conclusion: CDDA 100%
Signature: A96CEB5810284CC62C2F672AC8EB4185078C02B6
FILE: 18. Brandy feat. Monica - The Boy is Mine.flac
Size: 39080132 Hash: C1EAD1A61AFF0B71A1AFBFD8BEFCCB06 Accuracy: -m0
Conclusion: CDDA 100%
Signature: 02D459A005F07C6FEE0005717290CAF0E0171BC0
FILE: 19. The Cars - Drive.flac
Size: 30467469 Hash: A050D97333CE07E947FD811B72449B43 Accuracy: -m0
Conclusion: CDDA 100%
Signature: 4AE0149AA6D60E01C153A2CC3C95E74DAFE92F55
FILE: 20. R.E.M. - At My Most Beautiful.flac
Size: 21708465 Hash: 1931FFC80DDA84955024CA02E8BA637D Accuracy: -m0
Conclusion: CDDA 100%
Signature: CF3C2401CF7D9FF1D8039EFFEBF72FB90B23F888
1. Jason Mraz - I'm Yours
2. Kathryn Jenkins - Bring me to Life
3. Foreigner - I Want to Know What Love Is
4. Damien Rice - Cannonball
5. Seal - Kiss from a Rose
6. Percy Sledge - When a Man Loves a Woman
7. Candi Staton - Young Hearts Run Free
8. Ben E King - Stand by Me
9. Atlantic Star - Always
10. Randy Crawford - One Day I'll Fly Away
11. Patrice Rushen - Forget me Nots
12. Sister Sledge - Thinking of You
13. Chic - I Want Your Love
14. Rose Royce - Wishing on a Star
15. En Vogue - My Lovin'
16. Chaka Khan - I Feel for You
17. Change - The Glow of Love
18. Detroid Spinners - Working my Way Back to You
19. Grover Washington - Just the Two of Us
20. Otis Redding - Sitting on the Dock of the Bay
Exact Audio Copy V1.0 beta 3 from 29. August 2011

EAC extraction logfile from 8. December 2012, 13:23

- / Loving You CD2

Used drive : Optiarc DVD RW AD-7243S Adapter: 1 ID: 1

Read mode : Secure
Utilize accurate stream : Yes
Defeat audio cache : Yes
Make use of C2 pointers : No

Read offset correction : 48
Overread into Lead-In and Lead-Out : No
Fill up missing offset samples with silence : Yes
Delete leading and trailing silent blocks : No
Null samples used in CRC calculations : Yes
Used interface : Native Win32 interface for Win NT & 2000
Gap handling : Appended to previous track

Used output format : User Defined Encoder
Selected bitrate : 1024 kBit/s
Quality : High
Add ID3 tag : No
Command line compressor : C:\Program Files\Exact Audio Copy\FLAC\FLAC.EXE
Additional command line options : -V -8 -T "Artist=%artist%" -T "Title=%title%" -T "Album=%albumtitle%" -T "Date=%year%" -T "Tracknumber=%tracknr%" -T "Comment=%comment%" %source%

TOC of the extracted CD

Track | Start | Length | Start sector | End sector
---------------------------------------------------------
1 | 0:00.00 | 3:33.51 | 0 | 16025
2 | 3:33.51 | 3:42.69 | 16026 | 32744
3 | 7:16.45 | 4:46.47 | 32745 | 54241
4 | 12:03.17 | 4:48.06 | 54242 | 75847
5 | 16:51.23 | 4:47.70 | 75848 | 97442
6 | 21:39.18 | 2:51.35 | 97443 | 110302
7 | 24:30.53 | 3:49.39 | 110303 | 127516
8 | 28:20.17 | 2:55.06 | 127517 | 140647
9 | 31:15.23 | 3:58.24 | 140648 | 158521
10 | 35:13.47 | 4:54.38 | 158522 | 180609
11 | 40:08.10 | 3:49.40 | 180610 | 197824
12 | 43:57.50 | 4:25.73 | 197825 | 217772
13 | 48:23.48 | 3:24.44 | 217773 | 233116
14 | 51:48.17 | 3:59.30 | 233117 | 251071
15 | 55:47.47 | 4:43.44 | 251072 | 272340
16 | 60:31.16 | 5:13.66 | 272341 | 295881
17 | 65:45.07 | 3:40.29 | 295882 | 312410
18 | 69:25.36 | 4:03.10 | 312411 | 330645
19 | 73:28.46 | 3:27.13 | 330646 | 346183
20 | 76:55.59 | 2:41.44 | 346184 | 358302

Track 1

Filename J:\torrents\Various Artists - Loving You\CD2\01. Jason Mraz - Im Your's.wav

Pre-gap length 0:00:02.00

Peak level 98.9 %
Extraction speed 2.4 X
Track quality 100.0 %
Test CRC 4D95BCBD
Copy CRC 4D95BCBD
Accurately ripped (confidence 1) [17C42FCE] (AR v2)
Copy OK

Track 2

Filename J:\torrents\Various Artists - Loving You\CD2\02. Katherine Jenkins - Bring Me to Life.wav

Pre-gap length 0:00:01.00

Peak level 98.9 %
Extraction speed 2.7 X
Track quality 100.0 %
Test CRC BFE3C0EF
Copy CRC BFE3C0EF
Accurately ripped (confidence 1) [79981AFB] (AR v2)
Copy OK

Track 3

Filename J:\torrents\Various Artists - Loving You\CD2\03. Foreigner - I Want to Know What Love Is.wav

Pre-gap length 0:00:01.00

Peak level 95.6 %
Extraction speed 3.0 X
Track quality 100.0 %
Test CRC A02B16D7
Copy CRC A02B16D7
Accurately ripped (confidence 1) [0C8B2234] (AR v2)
Copy OK

Track 4

Filename J:\torrents\Various Artists - Loving You\CD2\04. Damien Rice - Cannonball.wav

Peak level 98.8 %
Extraction speed 3.2 X
Track quality 100.0 %
Test CRC 01AC8DEA
Copy CRC 01AC8DEA
Accurately ripped (confidence 1) [2F388F3B] (AR v2)
Copy OK

Track 5

Filename J:\torrents\Various Artists - Loving You\CD2\05. Seal - Kiss From A Rose.wav

Peak level 98.8 %
Extraction speed 3.5 X
Track quality 100.0 %
Test CRC 0380ABF6
Copy CRC 0380ABF6
Accurately ripped (confidence 1) [089E6440] (AR v2)
Copy OK

Track 6

Filename J:\torrents\Various Artists - Loving You\CD2\06. Percy Sledge - When a Man Loves a Woman.wav

Pre-gap length 0:00:01.00

Peak level 98.9 %
Extraction speed 3.4 X
Track quality 100.0 %
Test CRC 2AD9E758
Copy CRC 2AD9E758
Accurately ripped (confidence 1) [9DFEA7A4] (AR v2)
Copy OK

Track 7

Filename J:\torrents\Various Artists - Loving You\CD2\07. Candi Staton - Young Hearts Run Free.wav

Pre-gap length 0:00:01.00

Peak level 96.1 %
Extraction speed 3.7 X
Track quality 100.0 %
Test CRC 3B60C10B
Copy CRC 3B60C10B
Accurately ripped (confidence 1) [974E4D6D] (AR v2)
Copy OK

Track 8

Filename J:\torrents\Various Artists - Loving You\CD2\08. Ben E King - Stand By Me.wav

Peak level 98.8 %
Extraction speed 3.7 X
Track quality 100.0 %
Test CRC E709C6E0
Copy CRC E709C6E0
Accurately ripped (confidence 1) [2D18F35B] (AR v2)
Copy OK

Track 9

Filename J:\torrents\Various Artists - Loving You\CD2\09. Atlantic Starr - Always.wav

Pre-gap length 0:00:01.00

Peak level 98.9 %
Extraction speed 4.0 X
Track quality 100.0 %
Test CRC BC376C3F
Copy CRC BC376C3F
Accurately ripped (confidence 1) [FE3D3705] (AR v2)
Copy OK

Track 10

Filename J:\torrents\Various Artists - Loving You\CD2\10. Randy Crawford - One Day I'll Fly Away.wav

Peak level 98.8 %
Extraction speed 4.2 X
Track quality 100.0 %
Test CRC CCB622CE
Copy CRC CCB622CE
Accurately ripped (confidence 1) [4284AA60] (AR v2)
Copy OK

Track 11

Filename J:\torrents\Various Artists - Loving You\CD2\11. Patrice Rushen - Forget Me Nots.wav

Pre-gap length 0:00:01.00

Peak level 90.2 %
Extraction speed 4.3 X
Track quality 100.0 %
Test CRC 3254A288
Copy CRC 3254A288
Accurately ripped (confidence 1) [DA0633DA] (AR v2)
Copy OK

Track 12

Filename J:\torrents\Various Artists - Loving You\CD2\12. Sister Sledge - Thinking of You.wav

Pre-gap length 0:00:01.00

Peak level 98.8 %
Extraction speed 4.5 X
Track quality 100.0 %
Test CRC C2B3213C
Copy CRC C2B3213C
Accurately ripped (confidence 1) [BB6F41BD] (AR v2)
Copy OK

Track 13

Filename J:\torrents\Various Artists - Loving You\CD2\13. Chic - I Want Your Love.wav

Pre-gap length 0:00:01.00

Peak level 98.8 %
Extraction speed 4.5 X
Track quality 100.0 %
Test CRC 309BBFFF
Copy CRC 309BBFFF
Accurately ripped (confidence 1) [3506B6A6] (AR v2)
Copy OK

Track 14

Filename J:\torrents\Various Artists - Loving You\CD2\14. Rose Royce - Wishing on a Star.wav

Pre-gap length 0:00:01.00

Peak level 98.9 %
Extraction speed 4.2 X
Track quality 99.9 %
Test CRC DB534813
Copy CRC DB534813
Accurately ripped (confidence 1) [0828A71D] (AR v2)
Copy OK

Track 15

Filename J:\torrents\Various Artists - Loving You\CD2\15. En Vogue - My Lovin' (You're Never Gonna Get It).wav

Pre-gap length 0:00:01.00

Peak level 92.2 %
Extraction speed 5.0 X
Track quality 100.0 %
Test CRC 7AD53D41
Copy CRC 7AD53D41
Accurately ripped (confidence 1) [62C3679C] (AR v2)
Copy OK

Track 16

Filename J:\torrents\Various Artists - Loving You\CD2\16. Chaka Khan - I Feel For You.wav

Pre-gap length 0:00:01.00

Peak level 98.8 %
Extraction speed 5.1 X
Track quality 100.0 %
Test CRC 680B2369
Copy CRC 680B2369
Accurately ripped (confidence 1) [8A562B48] (AR v2)
Copy OK

Track 17

Filename J:\torrents\Various Artists - Loving You\CD2\17. Change - The Glow of Love.wav

Pre-gap length 0:00:01.00

Peak level 98.9 %
Extraction speed 5.0 X
Track quality 100.0 %
Test CRC 5AABD3D2
Copy CRC 5AABD3D2
Accurately ripped (confidence 1) [990C58B3] (AR v2)
Copy OK

Track 18

Filename J:\torrents\Various Artists - Loving You\CD2\18. Detroit Spinners - Working My Way Back to You.wav

Pre-gap length 0:00:01.00

Peak level 98.9 %
Extraction speed 5.3 X
Track quality 100.0 %
Test CRC 71689BAB
Copy CRC 71689BAB
Accurately ripped (confidence 1) [D37731B2] (AR v2)
Copy OK

Track 19

Filename J:\torrents\Various Artists - Loving You\CD2\19. Grover Washington Jr. - Just The Two of Us.wav

Pre-gap length 0:00:01.00

Peak level 98.8 %
Extraction speed 4.5 X
Track quality 99.9 %
Test CRC 7125F523
Copy CRC 7125F523
Accurately ripped (confidence 1) [6F4F86D6] (AR v2)
Copy OK

Track 20

Filename J:\torrents\Various Artists - Loving You\CD2\20. Otis Redding - (Sittin' On) The Dock Of The Bay.wav

Pre-gap length 0:00:01.00

Peak level 98.8 %
Extraction speed 5.1 X
Track quality 100.0 %
Test CRC FAEA5712
Copy CRC FAEA5712
Accurately ripped (confidence 1) [CD2C4EAE] (AR v2)
Copy OK

All tracks accurately ripped

No errors occurred

End of status report
REM GENRE Love
REM DATE 2010
REM DISCID 0012A914
REM COMMENT "ExactAudioCopy v1.0b3"
PERFORMER ""
TITLE "Loving You CD2"
FILE "01. Jason Mraz - Im Your's.wav" WAVE
TRACK 01 AUDIO
TITLE "Im Your's "
PERFORMER "Jason Mraz"
INDEX 01 00:00:00
TRACK 02 AUDIO
TITLE "Bring Me to Life "
PERFORMER "Katherine Jenkins"
INDEX 00 03:32:51
FILE "02. Katherine Jenkins - Bring Me to Life.wav" WAVE
INDEX 01 00:00:00
TRACK 03 AUDIO
TITLE "I Want to Know What Love Is"
PERFORMER "Foreigner"
INDEX 00 03:41:69
FILE "03. Foreigner - I Want to Know What Love Is.wav" WAVE
INDEX 01 00:00:00
FILE "04. Damien Rice - Cannonball.wav" WAVE
TRACK 04 AUDIO
TITLE "Cannonball"
PERFORMER "Damien Rice"
INDEX 01 00:00:00
FILE "05. Seal - Kiss From A Rose.wav" WAVE
TRACK 05 AUDIO
TITLE "Kiss From A Rose"
PERFORMER "Seal"
INDEX 01 00:00:00
TRACK 06 AUDIO
TITLE "When a Man Loves a Woman "
PERFORMER "Percy Sledge"
INDEX 00 04:46:70
FILE "06. Percy Sledge - When a Man Loves a Woman.wav" WAVE
INDEX 01 00:00:00
TRACK 07 AUDIO
TITLE "Young Hearts Run Free "
PERFORMER "Candi Staton"
INDEX 00 02:50:35
FILE "07. Candi Staton - Young Hearts Run Free.wav" WAVE
INDEX 01 00:00:00
FILE "08. Ben E King - Stand By Me.wav" WAVE
TRACK 08 AUDIO
TITLE "Stand By Me"
PERFORMER "Ben E King"
INDEX 01 00:00:00
TRACK 09 AUDIO
TITLE "Always "
PERFORMER "Atlantic Starr"
INDEX 00 02:54:06
FILE "09. Atlantic Starr - Always.wav" WAVE
INDEX 01 00:00:00
FILE "10. Randy Crawford - One Day I'll Fly Away.wav" WAVE
TRACK 10 AUDIO
TITLE "One Day I'll Fly Away"
PERFORMER "Randy Crawford"
INDEX 01 00:00:00
TRACK 11 AUDIO
TITLE "Forget Me Nots "
PERFORMER "Patrice Rushen"
INDEX 00 04:53:38
FILE "11. Patrice Rushen - Forget Me Nots.wav" WAVE
INDEX 01 00:00:00
TRACK 12 AUDIO
TITLE "Thinking of You"
PERFORMER "Sister Sledge"
INDEX 00 03:48:40
FILE "12. Sister Sledge - Thinking of You.wav" WAVE
INDEX 01 00:00:00
TRACK 13 AUDIO
TITLE "I Want Your Love"
PERFORMER "Chic"
INDEX 00 04:24:73
FILE "13. Chic - I Want Your Love.wav" WAVE
INDEX 01 00:00:00
TRACK 14 AUDIO
TITLE "Wishing on a Star "
PERFORMER "Rose Royce"
INDEX 00 03:23:44
FILE "14. Rose Royce - Wishing on a Star.wav" WAVE
INDEX 01 00:00:00
TRACK 15 AUDIO
TITLE "My Lovin' (You're Never Gonna Get It) "
PERFORMER "En Vogue"
INDEX 00 03:58:30
FILE "15. En Vogue - My Lovin' (You're Never Gonna Get It).wav" WAVE
INDEX 01 00:00:00
TRACK 16 AUDIO
TITLE "I Feel For You"
PERFORMER "Chaka Khan"
INDEX 00 04:42:44
FILE "16. Chaka Khan - I Feel For You.wav" WAVE
INDEX 01 00:00:00
TRACK 17 AUDIO
TITLE "The Glow of Love "
PERFORMER "Change"
INDEX 00 05:12:66
FILE "17. Change - The Glow of Love.wav" WAVE
INDEX 01 00:00:00
TRACK 18 AUDIO
TITLE "Working My Way Back to You "
PERFORMER "Detroit Spinners"
INDEX 00 03:39:29
FILE "18. Detroit Spinners - Working My Way Back to You.wav" WAVE
INDEX 01 00:00:00
TRACK 19 AUDIO
TITLE "Just The Two of Us"
PERFORMER "Grover Washington Jr."
INDEX 00 04:02:10
FILE "19. Grover Washington Jr. - Just The Two of Us.wav" WAVE
INDEX 01 00:00:00
TRACK 20 AUDIO
TITLE "(Sittin' On) The Dock Of The Bay "
PERFORMER "Otis Redding"
INDEX 00 03:26:13
FILE "20. Otis Redding - (Sittin' On) The Dock Of The Bay.wav" WAVE
INDEX 01 00:00:00
-----------------------

DON'T MODIFY THIS FILE

-----------------------

PERFORMER: auCDtect Task Manager, ver. 1.5.1RC4 build 1.5.1.5
Copyright (c) 2008-2010 y-soft. All rights reserved
http://y-soft.org

ANALYZER: auCDtect: CD records authenticity detector, version 0.8.2
Copyright (c) 2004 Oleg Berngardt. All rights reserved.
Copyright (c) 2004 Alexander Djourik. All rights reserved.

FILE: 01. Jason Mraz - Im Your's.flac
Size: 21807258 Hash: 8B6A190DB2E8D2E9E146CE5C4E198027 Accuracy: -m0
Conclusion: CDDA 100%
Signature: 971E276C6EC11B183734B9FF8593296D8C7AD8E9
FILE: 02. Katherine Jenkins - Bring Me to Life.flac
Size: 24742992 Hash: FEC935BD2B95762D305C12735949ADAC Accuracy: -m0
Conclusion: MPEG 80%
Signature: BFCE705DD0ED4216E5EFC411DA73293287675146
FILE: 04. Damien Rice - Cannonball.flac
Size: 29278495 Hash: 8DD87632F11C570FF022D9669AFF3853 Accuracy: -m0
Conclusion: CDDA 99%
Signature: 0F8DB65352992C18A620095C439DCC38033AF081
FILE: 05. Seal - Kiss From A Rose.flac
Size: 33596545 Hash: CCE6E085152732FB396BA23AA3A218CF Accuracy: -m0
Conclusion: CDDA 100%
Signature: 1CE013C69319446F8F63063B016AD2A07282CFBC
FILE: 06. Percy Sledge - When a Man Loves a Woman.flac
Size: 17418675 Hash: A4E237A6FA2B27914F1F4C4F2DB4FD0E Accuracy: -m0
Conclusion: CDDA 100%
Signature: 15D0979DF8160E6A9C64EBF836182BA9B7FCB7E0
FILE: 07. Candi Staton - Young Hearts Run Free.flac
Size: 29175902 Hash: 1C37B9396A6C269F76F2B5BF0F5074E1 Accuracy: -m0
Conclusion: CDDA 100%
Signature: 6EBD5EED15E076FD4BC0439523A9E7B903CB50EF
FILE: 08. Ben E King - Stand By Me.flac
Size: 14003277 Hash: 2F9F37257DB4B92ADDA4ECEC788EDD0A Accuracy: -m0
Conclusion: CDDA 100%
Signature: 8798C81BCE6412727FEF30A9D2B66DB2574E9C70
FILE: 09. Atlantic Starr - Always.flac
Size: 29305993 Hash: B941A7B807F2092D4C43CB77D4522430 Accuracy: -m0
Conclusion: CDDA 100%
Signature: 89EE7E81420362B31C27C5719294723A1C50EC03
FILE: 10. Randy Crawford - One Day I'll Fly Away.flac
Size: 29714077 Hash: 481854CB0B2D90DA3F36696A3BA3B33A Accuracy: -m0
Conclusion: CDDA 100%
Signature: 664BC4D80F43A2B0ED84DD22BE7B22777BC6DFCD
FILE: 11. Patrice Rushen - Forget Me Nots.flac
Size: 27040226 Hash: C5943D512C6B4A423786156ABFBB3819 Accuracy: -m0
Conclusion: CDDA 100%
Signature: D633473A9D30874008175EF4E43E67C1940EDE3A
FILE: 12. Sister Sledge - Thinking of You.flac
Size: 30913938 Hash: F2696D761AFCF52D3F22AD34EC053D69 Accuracy: -m0
Conclusion: CDDA 99%
Signature: 8ECEF36E98FA72C18C987A225CBA842AEEAA2B2C
FILE: 13. Chic - I Want Your Love.flac
Size: 24945349 Hash: C42C72307E18ACCA031E500F8BE7898A Accuracy: -m0
Conclusion: CDDA 100%
Signature: 3320F1A7465C3AE05A2A70130BE8D8149E8FF79D
FILE: 14. Rose Royce - Wishing on a Star.flac
Size: 26398121 Hash: 44792496B75297A2BA1FE4ED7DABCC3F Accuracy: -m0
Conclusion: CDDA 100%
Signature: D1F24C7B5E7CF64231127D2C4697554AB16AF801
FILE: 15. En Vogue - My Lovin' (You're Never Gonna Get It).flac
Size: 36034031 Hash: 23632CB9D14B78D84B3E2834D479C4CA Accuracy: -m0
Conclusion: CDDA 100%
Signature: B419FD2A7FE882D0B6AACFC89183EFF64816CF01
FILE: 16. Chaka Khan - I Feel For You.flac
Size: 38833217 Hash: B29B4C0E2FF0CE62F508D89CD5922FCE Accuracy: -m0
Conclusion: CDDA 100%
Signature: E7FEA8EBE4B3A311BA40C0EA690F529F6F27B4B5
FILE: 17. Change - The Glow of Love.flac
Size: 23507309 Hash: 3F0476795305073BF34C46429FD6E91C Accuracy: -m0
Conclusion: CDDA 100%
Signature: E0741BC3EDA1C93266ABBD631205771F05029A9D
FILE: 18. Detroit Spinners - Working My Way Back to You.flac
Size: 30640545 Hash: 0B7D084184DFDA0288549853B1EB28C8 Accuracy: -m0
Conclusion: CDDA 100%
Signature: 4674A45B64439535E81CE2277130C2D90E0EC3C7
FILE: 19. Grover Washington Jr. - Just The Two of Us.flac
Size: 22052562 Hash: 46E2D542B3D12CCB59A084314ACB3C87 Accuracy: -m0
Conclusion: CDDA 100%
Signature: 12F4234C7CBE66942E1C5EA2BB082638B84FD919
FILE: 20. Otis Redding - (Sittin' On) The Dock Of The Bay.flac
Size: 18514537 Hash: BEF4BBEEF6257CD697A5493E45215B50 Accuracy: -m0
Conclusion: CDDA 100%
Signature: 10F6638C7866E13B594980EDEB60FE7A6BD7A1E1
1. Fleetwood Mac - Everywhere
2. Bette Midler - The Rose
3. Simply Red - If you dont Know me by Now
4. The Corrs - Breathless
5. Shakespears Sister - Stay
6. Sixpence None The Richer - Kiss Me
7. ZZ Top - Give me All Your Loving
8. Mr Big - To be with You
9. Bluebells - Young at Heart
10. B 52's - Love Shack
11. Alannah Myles - Black Velvet
12. Aztec Camera - Somewhere in my Heart
13. Linda Ronstadt - Dont Know Much
14. Labi Siffre - Something Inside so Strong
15. Marc Cohn - Walking in Memphis
16. Manhatten Transfere - Walk in Love
17. Judy Collins - Send in the Clowns
18. George Benson - Love X Love
19. Christopher Cross - Sailing
20. Slave - Just a Touch of Love
Exact Audio Copy V1.0 beta 3 from 29. August 2011

EAC extraction logfile from 8. December 2012, 14:14

- / Loving You CD3

Used drive : Optiarc DVD RW AD-7243S Adapter: 1 ID: 1

Read mode : Secure
Utilize accurate stream : Yes
Defeat audio cache : Yes
Make use of C2 pointers : No

Read offset correction : 48
Overread into Lead-In and Lead-Out : No
Fill up missing offset samples with silence : Yes
Delete leading and trailing silent blocks : No
Null samples used in CRC calculations : Yes
Used interface : Native Win32 interface for Win NT & 2000
Gap handling : Appended to previous track

Used output format : User Defined Encoder
Selected bitrate : 1024 kBit/s
Quality : High
Add ID3 tag : No
Command line compressor : C:\Program Files\Exact Audio Copy\FLAC\FLAC.EXE
Additional command line options : -V -8 -T "Artist=%artist%" -T "Title=%title%" -T "Album=%albumtitle%" -T "Date=%year%" -T "Tracknumber=%tracknr%" -T "Comment=%comment%" %source%

TOC of the extracted CD

Track | Start | Length | Start sector | End sector
---------------------------------------------------------
1 | 0:00.00 | 3:42.60 | 0 | 16709
2 | 3:42.60 | 3:41.16 | 16710 | 33300
3 | 7:24.01 | 3:24.39 | 33301 | 48639
4 | 10:48.40 | 3:26.21 | 48640 | 64110
5 | 14:14.61 | 3:46.31 | 64111 | 81091
6 | 18:01.17 | 3:27.47 | 81092 | 96663
7 | 21:28.64 | 4:00.48 | 96664 | 114711
8 | 25:29.37 | 3:27.39 | 114712 | 130275
9 | 28:57.01 | 4:00.64 | 130276 | 148339
10 | 32:57.65 | 5:22.38 | 148340 | 172527
11 | 38:20.28 | 4:46.46 | 172528 | 194023
12 | 43:06.74 | 3:57.08 | 194024 | 211806
13 | 47:04.07 | 3:33.32 | 211807 | 227813
14 | 50:37.39 | 5:36.12 | 227814 | 253025
15 | 56:13.51 | 4:14.73 | 253026 | 272148
16 | 60:28.49 | 3:02.00 | 272149 | 285798
17 | 63:30.49 | 4:00.52 | 285799 | 303850
18 | 67:31.26 | 3:50.08 | 303851 | 321108
19 | 71:21.34 | 4:14.00 | 321109 | 340158
20 | 75:35.34 | 3:47.22 | 340159 | 357205

Track 1

Filename J:\torrents\Various Artists - Loving You\CD3\01. Fleetwood Mac - Everywhere.wav

Pre-gap length 0:00:02.00

Peak level 98.9 %
Extraction speed 2.5 X
Track quality 100.0 %
Test CRC FB95A6C6
Copy CRC FB95A6C6
Accurately ripped (confidence 1) [D988E0EE] (AR v2)
Copy OK

Track 2

Filename J:\torrents\Various Artists - Loving You\CD3\02. Bete Midler - The Rose.wav

Pre-gap length 0:00:01.00

Peak level 97.6 %
Extraction speed 2.7 X
Track quality 100.0 %
Test CRC 9A1EAF6F
Copy CRC 9A1EAF6F
Accurately ripped (confidence 1) [16639358] (AR v2)
Copy OK

Track 3

Filename J:\torrents\Various Artists - Loving You\CD3\03. Simply Red - If You Don't Know Me By Now.wav

Pre-gap length 0:00:01.00

Peak level 98.9 %
Extraction speed 2.5 X
Track quality 99.9 %
Test CRC 62B27546
Copy CRC 62B27546
Accurately ripped (confidence 1) [5040AD05] (AR v2)
Copy OK

Track 4

Filename J:\torrents\Various Artists - Loving You\CD3\04. The Corrs - Breathless.wav

Pre-gap length 0:00:00.37

Peak level 98.8 %
Extraction speed 3.0 X
Track quality 100.0 %
Test CRC F7157859
Copy CRC F7157859
Accurately ripped (confidence 1) [3B61D6C5] (AR v2)
Copy OK

Track 5

Filename J:\torrents\Various Artists - Loving You\CD3\05. Shakespear's Sister - Stay.wav

Pre-gap length 0:00:01.00

Peak level 98.9 %
Extraction speed 2.8 X
Track quality 99.9 %
Test CRC 2890273F
Copy CRC 2890273F
Accurately ripped (confidence 1) [9284383B] (AR v2)
Copy OK

Track 6

Filename J:\torrents\Various Artists - Loving You\CD3\06. Sixpence None The Richer - Kiss Me.wav

Pre-gap length 0:00:01.00

Peak level 85.0 %
Extraction speed 3.4 X
Track quality 100.0 %
Test CRC B2D96316
Copy CRC B2D96316
Accurately ripped (confidence 1) [60408A48] (AR v2)
Copy OK

Track 7

Filename J:\torrents\Various Artists - Loving You\CD3\07. ZZ Top - Gimme All Your Lovin'.wav

Pre-gap length 0:00:01.00

Peak level 90.9 %
Extraction speed 3.6 X
Track quality 100.0 %
Test CRC 38BC911D
Copy CRC 38BC911D
Accurately ripped (confidence 1) [021B5D12] (AR v2)
Copy OK

Track 8

Filename J:\torrents\Various Artists - Loving You\CD3\08. Mr. Big - To Be With You.wav

Pre-gap length 0:00:01.00

Peak level 96.6 %
Extraction speed 3.6 X
Track quality 100.0 %
Test CRC 347F5847
Copy CRC 347F5847
Accurately ripped (confidence 1) [DB6E6360] (AR v2)
Copy OK

Track 9

Filename J:\torrents\Various Artists - Loving You\CD3\09. The Bluebells - Young At Heart.wav

Pre-gap length 0:00:01.00

Peak level 98.8 %
Extraction speed 3.9 X
Track quality 100.0 %
Test CRC 80C5ADF7
Copy CRC 80C5ADF7
Accurately ripped (confidence 1) [0CA1F745] (AR v2)
Copy OK

Track 10

Filename J:\torrents\Various Artists - Loving You\CD3\10. The B-52's - Love Shack.wav

Pre-gap length 0:00:01.00

Peak level 98.8 %
Extraction speed 4.2 X
Track quality 100.0 %
Test CRC FFEECD52
Copy CRC FFEECD52
Accurately ripped (confidence 1) [3D5F733C] (AR v2)
Copy OK

Track 11

Filename J:\torrents\Various Artists - Loving You\CD3\11. Alannah Myles - Black Velvet.wav

Pre-gap length 0:00:01.00

Peak level 98.9 %
Extraction speed 4.4 X
Track quality 100.0 %
Test CRC F5677770
Copy CRC F5677770
Accurately ripped (confidence 1) [161ADE02] (AR v2)
Copy OK

Track 12

Filename J:\torrents\Various Artists - Loving You\CD3\12. Aztec Camera - Somewhere in My Heart.wav

Pre-gap length 0:00:01.00

Peak level 98.9 %
Extraction speed 4.4 X
Track quality 100.0 %
Test CRC A4114D87
Copy CRC A4114D87
Accurately ripped (confidence 1) [B4BA2278] (AR v2)
Copy OK

Track 13

Filename J:\torrents\Various Artists - Loving You\CD3\13. Linda Ronstadt - Don't Know Much.wav

Pre-gap length 0:00:01.00

Peak level 98.8 %
Extraction speed 3.9 X
Track quality 99.9 %
Test CRC 6D4F9354
Copy CRC 6D4F9354
Accurately ripped (confidence 1) [51E650E2] (AR v2)
Copy OK

Track 14

Filename J:\torrents\Various Artists - Loving You\CD3\14. Labe Siffre - (Something Inside) So Strong.wav

Pre-gap length 0:00:01.00

Peak level 98.9 %
Extraction speed 4.9 X
Track quality 100.0 %
Test CRC 2C71440A
Copy CRC 2C71440A
Accurately ripped (confidence 1) [E03235C4] (AR v2)
Copy OK

Track 15

Filename J:\torrents\Various Artists - Loving You\CD3\15. Marc Cohn - Walking In Memphis.wav

Pre-gap length 0:00:01.00

Peak level 98.8 %
Extraction speed 4.3 X
Track quality 99.9 %
Test CRC C6E0CBEA
Copy CRC C6E0CBEA
Accurately ripped (confidence 1) [0B1DF3AF] (AR v2)
Copy OK

Track 16

Filename J:\torrents\Various Artists - Loving You\CD3\16. The Manhattan Transfer - Walk In Love.wav

Pre-gap length 0:00:01.00

Peak level 98.8 %
Extraction speed 4.8 X
Track quality 100.0 %
Test CRC AC75F75B
Copy CRC AC75F75B
Accurately ripped (confidence 1) [503514D2] (AR v2)
Copy OK

Track 17

Filename J:\torrents\Various Artists - Loving You\CD3\17. Judy Collins - Send In The Clowns.wav

Pre-gap length 0:00:01.00

Peak level 98.8 %
Extraction speed 4.5 X
Track quality 99.9 %
Test CRC 4FB4A836
Copy CRC 4FB4A836
Accurately ripped (confidence 1) [AB74286D] (AR v2)
Copy OK

Track 18

Filename J:\torrents\Various Artists - Loving You\CD3\18. George Benson - Love X Love.wav

Pre-gap length 0:00:01.00

Peak level 98.9 %
Extraction speed 5.1 X
Track quality 100.0 %
Test CRC 3E19537C
Copy CRC 3E19537C
Accurately ripped (confidence 1) [E3BEB0CB] (AR v2)
Copy OK

Track 19

Filename J:\torrents\Various Artists - Loving You\CD3\19. Christopher Cross - Sailing.wav

Pre-gap length 0:00:01.00

Peak level 98.8 %
Extraction speed 5.3 X
Track quality 100.0 %
Test CRC 2E723B88
Copy CRC 2E723B88
Accurately ripped (confidence 1) [7C1679AC] (AR v2)
Copy OK

Track 20

Filename J:\torrents\Various Artists - Loving You\CD3\20. Slave - Just A Touch Of Love.wav

Pre-gap length 0:00:01.00

Peak level 81.4 %
Extraction speed 5.4 X
Track quality 100.0 %
Test CRC AF1A27A8
Copy CRC AF1A27A8
Accurately ripped (confidence 1) [17180BAA] (AR v2)
Copy OK

All tracks accurately ripped

No errors occurred

End of status report
REM GENRE Love
REM DATE 2010
REM DISCID 22129A14
REM COMMENT "ExactAudioCopy v1.0b3"
PERFORMER ""
TITLE "Loving You CD3"
FILE "01. Fleetwood Mac - Everywhere.wav" WAVE
TRACK 01 AUDIO
TITLE "Everywhere "
PERFORMER "Fleetwood Mac"
INDEX 01 00:00:00
TRACK 02 AUDIO
TITLE "The Rose "
PERFORMER "Bete Midler"
INDEX 00 03:41:60
FILE "02. Bete Midler - The Rose.wav" WAVE
INDEX 01 00:00:00
TRACK 03 AUDIO
TITLE "If You Don't Know Me By Now"
PERFORMER "Simply Red"
INDEX 00 03:40:16
FILE "03. Simply Red - If You Don't Know Me By Now.wav" WAVE
INDEX 01 00:00:00
TRACK 04 AUDIO
TITLE "Breathless "
PERFORMER "The Corrs"
INDEX 00 03:24:02
FILE "04. The Corrs - Breathless.wav" WAVE
INDEX 01 00:00:00
TRACK 05 AUDIO
TITLE "Stay "
PERFORMER "Shakespear's Sister"
INDEX 00 03:25:21
FILE "05. Shakespear's Sister - Stay.wav" WAVE
INDEX 01 00:00:00
TRACK 06 AUDIO
TITLE "Kiss Me "
PERFORMER "Sixpence None The Richer"
INDEX 00 03:45:31
FILE "06. Sixpence None The Richer - Kiss Me.wav" WAVE
INDEX 01 00:00:00
TRACK 07 AUDIO
TITLE "Gimme All Your Lovin' "
PERFORMER "ZZ Top"
INDEX 00 03:26:47
FILE "07. ZZ Top - Gimme All Your Lovin'.wav" WAVE
INDEX 01 00:00:00
TRACK 08 AUDIO
TITLE "To Be With You "
PERFORMER "Mr. Big"
INDEX 00 03:59:48
FILE "08. Mr. Big - To Be With You.wav" WAVE
INDEX 01 00:00:00
TRACK 09 AUDIO
TITLE "Young At Heart "
PERFORMER "The Bluebells"
INDEX 00 03:26:39
FILE "09. The Bluebells - Young At Heart.wav" WAVE
INDEX 01 00:00:00
TRACK 10 AUDIO
TITLE "Love Shack "
PERFORMER "The B-52's"
INDEX 00 03:59:64
FILE "10. The B-52's - Love Shack.wav" WAVE
INDEX 01 00:00:00
TRACK 11 AUDIO
TITLE "Black Velvet "
PERFORMER "Alannah Myles"
INDEX 00 05:21:38
FILE "11. Alannah Myles - Black Velvet.wav" WAVE
INDEX 01 00:00:00
TRACK 12 AUDIO
TITLE "Somewhere in My Heart "
PERFORMER "Aztec Camera"
INDEX 00 04:45:46
FILE "12. Aztec Camera - Somewhere in My Heart.wav" WAVE
INDEX 01 00:00:00
TRACK 13 AUDIO
TITLE "Don't Know Much "
PERFORMER "Linda Ronstadt"
INDEX 00 03:56:08
FILE "13. Linda Ronstadt - Don't Know Much.wav" WAVE
INDEX 01 00:00:00
TRACK 14 AUDIO
TITLE "(Something Inside) So Strong "
PERFORMER "Labe Siffre"
INDEX 00 03:32:32
FILE "14. Labe Siffre - (Something Inside) So Strong.wav" WAVE
INDEX 01 00:00:00
TRACK 15 AUDIO
TITLE "Walking In Memphis "
PERFORMER "Marc Cohn"
INDEX 00 05:35:12
FILE "15. Marc Cohn - Walking In Memphis.wav" WAVE
INDEX 01 00:00:00
TRACK 16 AUDIO
TITLE "Walk In Love "
PERFORMER "The Manhattan Transfer"
INDEX 00 04:13:73
FILE "16. The Manhattan Transfer - Walk In Love.wav" WAVE
INDEX 01 00:00:00
TRACK 17 AUDIO
TITLE "Send In The Clowns "
PERFORMER "Judy Collins"
INDEX 00 03:01:00
FILE "17. Judy Collins - Send In The Clowns.wav" WAVE
INDEX 01 00:00:00
TRACK 18 AUDIO
TITLE "Love X Love "
PERFORMER "George Benson"
INDEX 00 03:59:52
FILE "18. George Benson - Love X Love.wav" WAVE
INDEX 01 00:00:00
TRACK 19 AUDIO
TITLE "Sailing "
PERFORMER "Christopher Cross"
INDEX 00 03:49:08
FILE "19. Christopher Cross - Sailing.wav" WAVE
INDEX 01 00:00:00
TRACK 20 AUDIO
TITLE "Just A Touch Of Love "
PERFORMER "Slave"
INDEX 00 04:13:00
FILE "20. Slave - Just A Touch Of Love.wav" WAVE
INDEX 01 00:00:00
-----------------------

DON'T MODIFY THIS FILE

-----------------------

PERFORMER: auCDtect Task Manager, ver. 1.5.1RC4 build 1.5.1.5
Copyright (c) 2008-2010 y-soft. All rights reserved
http://y-soft.org

ANALYZER: auCDtect: CD records authenticity detector, version 0.8.2
Copyright (c) 2004 Oleg Berngardt. All rights reserved.
Copyright (c) 2004 Alexander Djourik. All rights reserved.

FILE: 20. Slave - Just A Touch Of Love.flac
Size: 27453660 Hash: 61F50EAFB2251178BCAD8A913B095A03 Accuracy: -m0
Conclusion: CDDA 100%
Signature: 6A2ADD4367713579A70FA592E5A28845103D699C
FILE: 19. Christopher Cross - Sailing.flac
Size: 28169880 Hash: 7B5DAD2B295BEC0F452DECC239344FB6 Accuracy: -m0
Conclusion: CDDA 100%
Signature: C4103DB69589CF93F4E42D0D89D649826BF232EB
FILE: 18. George Benson - Love X Love.flac
Size: 27221570 Hash: EEF6EF2BCA45C55556B6B4172956CC87 Accuracy: -m0
Conclusion: CDDA 100%
Signature: 96D1001CFA2620C4891E95F1091010D387C06A06
FILE: 17. Judy Collins - Send In The Clowns.flac
Size: 22203541 Hash: D1D8764453119A1195529BE833EC397B Accuracy: -m0
Conclusion: CDDA 100%
Signature: C98E7755225335F2F454BCABE347E60E95F81EAC
FILE: 16. The Manhattan Transfer - Walk In Love.flac
Size: 21505068 Hash: 0788013670753A5F3717102C33F77B8F Accuracy: -m0
Conclusion: CDDA 100%
Signature: 5E41111C6F7510B58644F379CEFE419C1002057A
FILE: 15. Marc Cohn - Walking In Memphis.flac
Size: 27133699 Hash: 243F1683B442E44D7976B1291198F0A9 Accuracy: -m0
Conclusion: CDDA 100%
Signature: F992AF95875D04892A5E9D32DF8333A0B5B3AD07
FILE: 14. Labe Siffre - (Something Inside) So Strong.flac
Size: 37589385 Hash: 2A8682072B995C84C5A3BCADF8E9A98E Accuracy: -m0
Conclusion: CDDA 99%
Signature: 45105232387F1C002F55049C51A76BEF5C09F755
FILE: 13. Linda Ronstadt - Don't Know Much.flac
Size: 22521203 Hash: 0771C17495D284EDF082B6D8FD34E831 Accuracy: -m0
Conclusion: CDDA 100%
Signature: A8657359C2FD80CB6D03757743CDF3879BDB1BB8
FILE: 12. Aztec Camera - Somewhere in My Heart.flac
Size: 31369291 Hash: 6107ED1D54E3A6DCB427E76CB545AE43 Accuracy: -m0
Conclusion: CDDA 100%
Signature: 3BC3893724F309FAC35FAF60ADC17D6E9D984A81
FILE: 11. Alannah Myles - Black Velvet.flac
Size: 34094501 Hash: 7F539965C84BE9CDEE3CD945CE0C5F16 Accuracy: -m0
Conclusion: CDDA 100%
Signature: 3EA57CD3C0BC165777D1E3CE92EE8165064392D6
FILE: 10. The B-52's - Love Shack.flac
Size: 43167561 Hash: F8FB850D394FFCA252942DABAEE51BC1 Accuracy: -m0
Conclusion: CDDA 100%
Signature: 9680FB02315C86DAEB49543142CF503F6B8913A0
FILE: 09. The Bluebells - Young At Heart.flac
Size: 30079465 Hash: 6C492AF7DFE06F64F2451ED65503982C Accuracy: -m0
Conclusion: CDDA 100%
Signature: FB48B2A39976C3C7B1E43F983D503EBF941647A5
FILE: 08. Mr. Big - To Be With You.flac
Size: 25327500 Hash: 730909AB6F1E16F4E2A7B1ABCF9C3638 Accuracy: -m0
Conclusion: CDDA 100%
Signature: 402589431EC6C959DFD62818AECEDEA45A78AD27
FILE: 07. ZZ Top - Gimme All Your Lovin'.flac
Size: 28884768 Hash: B4CC6D62E482D44F8B752EFE859E0B0C Accuracy: -m0
Conclusion: CDDA 100%
Signature: 13A5367ACEFD3F9B49730E6489373EF5CDB4F869
FILE: 06. Sixpence None The Richer - Kiss Me.flac
Size: 25202902 Hash: D8AA8E12B936EE585D7A4C003577A6A1 Accuracy: -m0
Conclusion: CDDA 99%
Signature: 50EF5533411E6454F5C47F7B6984B0E1E7D7FFCF
FILE: 05. Shakespear's Sister - Stay.flac
Size: 23451128 Hash: 3FFDF946780B43D2FDE8F0FF64088122 Accuracy: -m0
Conclusion: CDDA 100%
Signature: 7B80FE73AD1E1E1422F09F6CA8F25D0A1BFC0E12
FILE: 04. The Corrs - Breathless.flac
Size: 27100550 Hash: E52EF91D9421E0C1610AE0626E33FCF1 Accuracy: -m0
Conclusion: CDDA 100%
Signature: 3183653AE7A3CCADE1E79685979106EA7E37DA39
FILE: 03. Simply Red - If You Don't Know Me By Now.flac
Size: 23352694 Hash: A747DC4BA10110630A1087D711042344 Accuracy: -m0
Conclusion: CDDA 86%
Signature: B30DF920BFB18B03279E1DFB7DAB1D672B32BE80
FILE: 02. Bete Midler - The Rose.flac
Size: 21980331 Hash: C55DC0F3666A1CC3654FEAC7F5FF3D77 Accuracy: -m0
Conclusion: CDDA 100%
Signature: 51F8674588F20AC2D5B881EC685C7A78C8EFE788
FILE: 01. Fleetwood Mac - Everywhere.flac
Size: 28407087 Hash: 278AD5AEF608F00A77114D9A45C5B747 Accuracy: -m0
Conclusion: CDDA 85%
Signature: 0DA7106A71437686435417F8F0DE8DB964A8538E


Трекер:  [ 10-Дек-2012 06:33 ]

  

Скачать .torrent

Размер .torrent файла 21 KB


Размер: 1.56 GB
Хэш (hash) релиза: f96247b99d689fc1d1c9eb6dacc03d36bc8f15da

Торренты, похожие на VA - Loving You - 2010, FLAC скачать торрент

Форум Название Автор Размер S L Добавлен
Саундтреки к фильмам и мультфильмам (lossless) ·· (Soundtrack) Я люблю тебя, Филлип Моррис / I Love You Phillip Morris (by Nick Urata & VA) - 2010 [FLAC (tracks+.cue) lossless] Galfimbul 243620155232 MB 0 0 1292268757

22:32

13-Дек-10

Еще никто не оставлял запись к записи скачать торрент VA - Loving You - 2010, FLAC . Будь первым!

!Обратная связь