Скачать через торрент музыку 10cc - Classic Album Selection: Five Albums 1975-1978 бесплатно без регистрации torrent

Если у вас наблюдаются проблемы со скриншотами, переходом по ссылками, скачиванием торрентов - проблемы в блокировщике рекламы AdBlock. #хорошегоДня!


Статистика раздачи
Размер:  2.02 GB   |    Зарегистрирован:  4 года 11 месяцев   |    .torrent скачан:  16 раз   |   
Раздают:  1  
   
Загрузка...
 
Автор Сообщение

Galfimbul

avatar Galfimbul


10cc / Classic Album Selection: Five Albums 1975-1978

Жанр: Pop Rock, Clasic Rock, Art Rock
Страна-производитель диска: EU, Germany
Год издания: 2012
Издатель (лейбл): Universal Music Company, Mercury Records Limited
Номер по каталогу: 3704908, 0602537049080
Страна: UK, England
Аудиокодек: FLAC (*.flac)
Тип рипа: image+.cue
Битрейт аудио: lossless
Продолжительность: 04:50:12
Источник (релизер): Собственный
Наличие сканов в содержимом раздачи: да (Ping, 300dpi, 215Mb)
Amazon | Discogs | Wikipedia | Official page
Об альбоме (сборнике): В состав данного Бокс Сета вошли четыре студийных альбома и один двухдисковый концертный альбом (самый успешный), «золотого» периода группы 10cc. Все альбомы стали Gold в UK. В 1997 году студийные альбомы были ремастированы и в состав альбомов были добавлены бонус треки. Мастеринг концертного альбома установить не удаётся. Альбомы упакованы в конверты типа mini LP.
Studio Albums

01. Une Nuit A Paris - 8:44
02. I'm Not In Love - 6:08
03. Blackmail - 4:32
04. The Second Sitting For The Last Supper - 4:31
05. Brand New Day - 4:06
06. Flying Junk - 4:16
07. Life Is A Minestrone - 4:47
08. The Film Of My Love - 5:09Bonus Tracks:
09. Channel Swimmer - 2:57
10. Good News - 3:50
Exact Audio Copy V1.0 beta 3 from 29. August 2011

EAC extraction logfile from 8. December 2012, 9:18

10cc / The Original Soundtrack (3705843)

Used drive : ATAPI iHAS124 B Adapter: 2 ID: 0

Read mode : SecureUtilize accurate stream : YesDefeat audio cache : YesMake use of C2 pointers : No

Read offset correction : 6Overread into Lead-In and Lead-Out : NoFill up missing offset samples with silence : YesDelete leading and trailing silent blocks : NoNull samples used in CRC calculations : YesUsed interface : Native Win32 interface for Win NT & 2000

Used output format : User Defined EncoderSelected bitrate : 1024 kBit/sQuality : HighAdd ID3 tag : NoCommand line compressor : C:\Program Files (x86)\Exact Audio Copy\FLAC\FLAC.EXEAdditional command line options : -8 -V -T "ARTIST=%artist%" -T "TITLE=%title%" -T "ALBUM=%albumtitle%" -T "DATE=%year%" -T "TRACKNUMBER=%tracknr%" -T "GENRE=%genre%" -T "PERFORMER=%albuminterpret%" -T "COMPOSER=%composer%" %haslyrics%--tag-from-file=LYRICS="%lyricsfile%"%haslyrics% -T "ALBUMARTIST=%albumartist%" -T "DISCNUMBER=%cdnumber%" -T "TOTALDISCS=%totalcds%" -T "TOTALTRACKS=%numtracks%" -T "COMMENT=%comment%" %source% -o %dest%

TOC of the extracted CD

Track | Start | Length | Start sector | End sector --------------------------------------------------------- 1 | 0:00.00 | 8:43.57 | 0 | 39281 2 | 8:43.57 | 6:08.35 | 39282 | 66916 3 | 14:52.17 | 4:32.00 | 66917 | 87316 4 | 19:24.17 | 4:30.63 | 87317 | 107629 5 | 23:55.05 | 4:05.52 | 107630 | 126056 6 | 28:00.57 | 4:15.48 | 126057 | 145229 7 | 32:16.30 | 4:46.57 | 145230 | 166736 8 | 37:03.12 | 5:08.60 | 166737 | 189896 9 | 42:11.72 | 2:56.55 | 189897 | 203151 10 | 45:08.52 | 3:50.08 | 203152 | 220409

Range status and errors

Selected range

Filename G:\CD\10cc - The Original Soundtrack (3705843).wav

Peak level 100.0 % Extraction speed 5.7 X Range quality 100.0 % Test CRC 9462BCE7 Copy CRC 9462BCE7 Copy OK

No errors occurred

AccurateRip summary

Track 1 accurately ripped (confidence 6) [F0C45DC2] (AR v2)Track 2 accurately ripped (confidence 6) [619E67AF] (AR v2)Track 3 accurately ripped (confidence 6) [B6E64734] (AR v2)Track 4 accurately ripped (confidence 6) [D3269157] (AR v2)Track 5 accurately ripped (confidence 6) [494F4DAE] (AR v2)Track 6 accurately ripped (confidence 6) [D4EE32A6] (AR v2)Track 7 accurately ripped (confidence 6) [03929CD2] (AR v2)Track 8 accurately ripped (confidence 6) [FE344ED5] (AR v2)Track 9 accurately ripped (confidence 6) [2DBDB2C6] (AR v2)Track 10 accurately ripped (confidence 5) [900677BC] (AR v2)

All tracks accurately ripped

End of status report

==== Log checksum 52E5C935954C0D779DBB3F4F45C531E1C6186282DB91C7BBEBEA0E8315C97502 ====

01. How Dare You - 4:15
02. Lazy Ways - 4:23
03. I Wanna Rule The World - 3:59
04. I'm Mandy Fly Me - 5:24
05. Iceberg - 3:43
06. Art For Art's Sake - 6:02
07. Rock 'N' Roll Lullaby - 4:01
08. Head Room - 4:24
09. Don't Hang Up - 6:19Bonus Tracks:
10. Get It While You Can (extra track) - 2:55
Exact Audio Copy V1.0 beta 3 from 29. August 2011

EAC extraction logfile from 8. December 2012, 9:42

10cc / How Dare You! (3705850)

Used drive : ATAPI iHAS124 B Adapter: 2 ID: 0

Read mode : SecureUtilize accurate stream : YesDefeat audio cache : YesMake use of C2 pointers : No

Read offset correction : 6Overread into Lead-In and Lead-Out : NoFill up missing offset samples with silence : YesDelete leading and trailing silent blocks : NoNull samples used in CRC calculations : YesUsed interface : Native Win32 interface for Win NT & 2000

Used output format : User Defined EncoderSelected bitrate : 1024 kBit/sQuality : HighAdd ID3 tag : NoCommand line compressor : C:\Program Files (x86)\Exact Audio Copy\FLAC\FLAC.EXEAdditional command line options : -8 -V -T "ARTIST=%artist%" -T "TITLE=%title%" -T "ALBUM=%albumtitle%" -T "DATE=%year%" -T "TRACKNUMBER=%tracknr%" -T "GENRE=%genre%" -T "PERFORMER=%albuminterpret%" -T "COMPOSER=%composer%" %haslyrics%--tag-from-file=LYRICS="%lyricsfile%"%haslyrics% -T "ALBUMARTIST=%albumartist%" -T "DISCNUMBER=%cdnumber%" -T "TOTALDISCS=%totalcds%" -T "TOTALTRACKS=%numtracks%" -T "COMMENT=%comment%" %source% -o %dest%

TOC of the extracted CD

Track | Start | Length | Start sector | End sector --------------------------------------------------------- 1 | 0:00.00 | 4:15.02 | 0 | 19126 2 | 4:15.02 | 4:23.28 | 19127 | 38879 3 | 8:38.30 | 3:59.32 | 38880 | 56836 4 | 12:37.62 | 5:23.40 | 56837 | 81101 5 | 18:01.27 | 3:43.35 | 81102 | 97861 6 | 21:44.62 | 6:02.13 | 97862 | 125024 7 | 27:47.00 | 4:00.70 | 125025 | 143094 8 | 31:47.70 | 4:24.12 | 143095 | 162906 9 | 36:12.07 | 6:19.25 | 162907 | 191356 10 | 42:31.32 | 2:55.33 | 191357 | 204514

Range status and errors

Selected range

Filename G:\CD\10cc - How Dare You! (3705850).wav

Peak level 100.0 % Extraction speed 5.6 X Range quality 100.0 % Test CRC 731B4E22 Copy CRC 731B4E22 Copy OK

No errors occurred

AccurateRip summary

Track 1 not present in databaseTrack 2 not present in databaseTrack 3 not present in databaseTrack 4 not present in databaseTrack 5 not present in databaseTrack 6 not present in databaseTrack 7 not present in databaseTrack 8 not present in databaseTrack 9 not present in databaseTrack 10 not present in database

None of the tracks are present in the AccurateRip database

End of status report

==== Log checksum 9BA5FD5CA8EF098252167EBA77D831960A30FBFE4D835B71170D14CD9302941C ====

01. Good Morning Judge - 2:56
02. The Things We Do For Love - 3:29
03. Marriage Bureau Rendezvous - 4:06
04. People In Love - 3:49
05. Modern Man Blues - 5:33
06. Honeymoon With B Troop - 2:49
07. I Bought A Flat Guitar Tutor - 1:48
08. You've Got A Cold - 3:37
09. Feel The Benefit (Parts 1, 2, And 3) - 11:32Bonus Tracks:
10. Hot To Trot (Extra Track) - 4:29
11. Don't Squeeze Me Like Toothpaste (Extra Track) - 3:37
12. I'm So Laid Back, I'm Laid Out (Extra Track) - 3:48
Exact Audio Copy V1.0 beta 3 from 29. August 2011

EAC extraction logfile from 8. December 2012, 10:03

10cc / Deceptive Bends (3705917)

Used drive : ATAPI iHAS124 B Adapter: 2 ID: 0

Read mode : SecureUtilize accurate stream : YesDefeat audio cache : YesMake use of C2 pointers : No

Read offset correction : 6Overread into Lead-In and Lead-Out : NoFill up missing offset samples with silence : YesDelete leading and trailing silent blocks : NoNull samples used in CRC calculations : YesUsed interface : Native Win32 interface for Win NT & 2000

Used output format : User Defined EncoderSelected bitrate : 1024 kBit/sQuality : HighAdd ID3 tag : NoCommand line compressor : C:\Program Files (x86)\Exact Audio Copy\FLAC\FLAC.EXEAdditional command line options : -8 -V -T "ARTIST=%artist%" -T "TITLE=%title%" -T "ALBUM=%albumtitle%" -T "DATE=%year%" -T "TRACKNUMBER=%tracknr%" -T "GENRE=%genre%" -T "PERFORMER=%albuminterpret%" -T "COMPOSER=%composer%" %haslyrics%--tag-from-file=LYRICS="%lyricsfile%"%haslyrics% -T "ALBUMARTIST=%albumartist%" -T "DISCNUMBER=%cdnumber%" -T "TOTALDISCS=%totalcds%" -T "TOTALTRACKS=%numtracks%" -T "COMMENT=%comment%" %source% -o %dest%

TOC of the extracted CD

Track | Start | Length | Start sector | End sector --------------------------------------------------------- 1 | 0:00.00 | 2:56.27 | 0 | 13226 2 | 2:56.27 | 3:29.35 | 13227 | 28936 3 | 6:25.62 | 4:05.53 | 28937 | 47364 4 | 10:31.40 | 3:48.47 | 47365 | 64511 5 | 14:20.12 | 5:32.50 | 64512 | 89461 6 | 19:52.62 | 2:49.33 | 89462 | 102169 7 | 22:42.20 | 1:47.40 | 102170 | 110234 8 | 24:29.60 | 3:37.20 | 110235 | 126529 9 | 28:07.05 | 11:31.50 | 126530 | 178404 10 | 39:38.55 | 4:29.10 | 178405 | 198589 11 | 44:07.65 | 3:37.22 | 198590 | 214886 12 | 47:45.12 | 3:48.20 | 214887 | 232006

Range status and errors

Selected range

Filename G:\CD\10cc - Deceptive Bends (3705917).wav

Peak level 100.0 % Extraction speed 5.8 X Range quality 100.0 % Test CRC 0B5A706C Copy CRC 0B5A706C Copy OK

No errors occurred

AccurateRip summary

Track 1 cannot be verified as accurate (confidence 30) [E27FAEFD], AccurateRip returned [54965FC4] (AR v2)Track 2 cannot be verified as accurate (confidence 30) [DE215AB9], AccurateRip returned [962314B4] (AR v2)Track 3 cannot be verified as accurate (confidence 30) [9369CAF7], AccurateRip returned [7BA74612] (AR v2)Track 4 cannot be verified as accurate (confidence 30) [46D1ED3D], AccurateRip returned [FB706992] (AR v2)Track 5 cannot be verified as accurate (confidence 30) [7D6745DB], AccurateRip returned [C2D606FE] (AR v2)Track 6 cannot be verified as accurate (confidence 30) [428FDD9D], AccurateRip returned [29CC1A91] (AR v2)Track 7 cannot be verified as accurate (confidence 30) [3FBD7F5F], AccurateRip returned [8AFBD212] (AR v2)Track 8 cannot be verified as accurate (confidence 30) [D374A27D], AccurateRip returned [B0EE2503] (AR v2)Track 9 cannot be verified as accurate (confidence 30) [ABC7DC0B], AccurateRip returned [053E8A7A] (AR v2)Track 10 cannot be verified as accurate (confidence 30) [FFCA796F], AccurateRip returned [0AABBE5A] (AR v2)Track 11 cannot be verified as accurate (confidence 30) [24D55853], AccurateRip returned [67E0D390] (AR v2)Track 12 cannot be verified as accurate (confidence 30) [2AE2DCD4], AccurateRip returned [5F1BB6C2] (AR v2)

No tracks could be verified as accurateYou may have a different pressing from the one(s) in the database

End of status report

==== Log checksum 3180E5AD15966437D5504874658C1B2F89FA38299ABE200FD0C96D8DD626E5A6 ====

01. Dreadlock Holiday - 1997 Remaster - 4:30
02. For You And I - 1997 Remaster - 5:19
03. Take These Chains - 1997 Remaster - 2:37
04. Shock On The Tube (Don't Want Love) - 1997 Remaster - 3:40
05. Last Night - 1997 Remaster - 3:11
06. Anonymous Alcohol - 1997 Remaster - 5:40
07. Reds In My Bed - 1997 Remaster - 4:10
08. Lifeline - 1997 Remaster - 3:28
09. Tokyo - 1997 Remaster - 4:31
10. Old Mister Time - 1997 Remaster - 4:29
11. From Rochdale To Ocho Rios - 1997 Remaster - 3:43
12. Everything You Wanted To Know About - 1997 Remaster - 4:29Bonus Tracks:
13. Nothing Can Move Me (B-Side to 'Dreadlock Holiday' 7' Single) - 4:04
Exact Audio Copy V1.0 beta 3 from 29. August 2011

EAC extraction logfile from 8. December 2012, 10:30

10cc / Bloody Tourists (3705918)

Used drive : ATAPI iHAS124 B Adapter: 2 ID: 0

Read mode : SecureUtilize accurate stream : YesDefeat audio cache : YesMake use of C2 pointers : No

Read offset correction : 6Overread into Lead-In and Lead-Out : NoFill up missing offset samples with silence : YesDelete leading and trailing silent blocks : NoNull samples used in CRC calculations : YesUsed interface : Native Win32 interface for Win NT & 2000

Used output format : User Defined EncoderSelected bitrate : 1024 kBit/sQuality : HighAdd ID3 tag : NoCommand line compressor : C:\Program Files (x86)\Exact Audio Copy\FLAC\FLAC.EXEAdditional command line options : -8 -V -T "ARTIST=%artist%" -T "TITLE=%title%" -T "ALBUM=%albumtitle%" -T "DATE=%year%" -T "TRACKNUMBER=%tracknr%" -T "GENRE=%genre%" -T "PERFORMER=%albuminterpret%" -T "COMPOSER=%composer%" %haslyrics%--tag-from-file=LYRICS="%lyricsfile%"%haslyrics% -T "ALBUMARTIST=%albumartist%" -T "DISCNUMBER=%cdnumber%" -T "TOTALDISCS=%totalcds%" -T "TOTALTRACKS=%numtracks%" -T "COMMENT=%comment%" %source% -o %dest%

TOC of the extracted CD

Track | Start | Length | Start sector | End sector --------------------------------------------------------- 1 | 0:00.00 | 4:29.54 | 0 | 20228 2 | 4:29.54 | 5:18.60 | 20229 | 44138 3 | 9:48.39 | 2:37.06 | 44139 | 55919 4 | 12:25.45 | 3:40.15 | 55920 | 72434 5 | 16:05.60 | 3:11.33 | 72435 | 86792 6 | 19:17.18 | 5:40.11 | 86793 | 112303 7 | 24:57.29 | 4:09.64 | 112304 | 131042 8 | 29:07.18 | 3:27.61 | 131043 | 146628 9 | 32:35.04 | 4:31.23 | 146629 | 166976 10 | 37:06.27 | 4:29.00 | 166977 | 187151 11 | 41:35.27 | 3:43.07 | 187152 | 203883 12 | 45:18.34 | 4:28.71 | 203884 | 224054 13 | 49:47.30 | 4:04.31 | 224055 | 242385

Range status and errors

Selected range

Filename G:\CD\10cc - Bloody Tourists (3705918).wav

Peak level 100.0 % Extraction speed 5.7 X Range quality 100.0 % Test CRC D5E6EA2B Copy CRC D5E6EA2B Copy OK

No errors occurred

AccurateRip summary

Track 1 not present in databaseTrack 2 not present in databaseTrack 3 not present in databaseTrack 4 not present in databaseTrack 5 not present in databaseTrack 6 not present in databaseTrack 7 not present in databaseTrack 8 not present in databaseTrack 9 not present in databaseTrack 10 not present in databaseTrack 11 not present in databaseTrack 12 not present in databaseTrack 13 not present in database

None of the tracks are present in the AccurateRip database

End of status report

==== Log checksum 02B94B4C1BA81282B92F46A49F10D2E9B0A766F720CBD633C6125454A18C532D ====
Live Album

CD 1 - 00:46:52
01. The Second Sitting For The Last Supper - 5:22
02. You've Got A Cold - 3:58
03. Honeymoon With B Troop - 3:56
04. Arts For Arts Sake - 7:15
05. People In Love - 4:11
06. Wall Street Shuffle - 4:13
07. Ships Don't Disappear In The Night - 7:34
08. I'm Mandy Fly Me - 6:03
09. Marriage Bureau Rendezvous - 4:21

CD 2 - 00:43:29
01. Good Morning Judge - 3:11
02. Feel The Benefit - 13:36
03. The Things We Do For Love - 3:49
04. Waterfall - 7:48
05. I'm Not In Love - 7:00
06. Modern Man Blues - 8:05
Exact Audio Copy V1.0 beta 3 from 29. August 2011

EAC extraction logfile from 8. December 2012, 11:09

10cc / Live And Let Live (3721061) CD1

Used drive : ATAPI iHAS124 B Adapter: 2 ID: 0

Read mode : SecureUtilize accurate stream : YesDefeat audio cache : YesMake use of C2 pointers : No

Read offset correction : 6Overread into Lead-In and Lead-Out : NoFill up missing offset samples with silence : YesDelete leading and trailing silent blocks : NoNull samples used in CRC calculations : YesUsed interface : Native Win32 interface for Win NT & 2000

Used output format : User Defined EncoderSelected bitrate : 1024 kBit/sQuality : HighAdd ID3 tag : NoCommand line compressor : C:\Program Files (x86)\Exact Audio Copy\FLAC\FLAC.EXEAdditional command line options : -8 -V -T "ARTIST=%artist%" -T "TITLE=%title%" -T "ALBUM=%albumtitle%" -T "DATE=%year%" -T "TRACKNUMBER=%tracknr%" -T "GENRE=%genre%" -T "PERFORMER=%albuminterpret%" -T "COMPOSER=%composer%" %haslyrics%--tag-from-file=LYRICS="%lyricsfile%"%haslyrics% -T "ALBUMARTIST=%albumartist%" -T "DISCNUMBER=%cdnumber%" -T "TOTALDISCS=%totalcds%" -T "TOTALTRACKS=%numtracks%" -T "COMMENT=%comment%" %source% -o %dest%

TOC of the extracted CD

Track | Start | Length | Start sector | End sector --------------------------------------------------------- 1 | 0:00.00 | 5:22.25 | 0 | 24174 2 | 5:22.25 | 3:57.56 | 24175 | 42005 3 | 9:20.06 | 3:56.27 | 42006 | 59732 4 | 13:16.33 | 7:14.44 | 59733 | 92326 5 | 20:31.02 | 4:11.30 | 92327 | 111181 6 | 24:42.32 | 4:12.41 | 111182 | 130122 7 | 28:54.73 | 7:33.40 | 130123 | 164137 8 | 36:28.38 | 6:03.05 | 164138 | 191367 9 | 42:31.43 | 4:20.45 | 191368 | 210912

Range status and errors

Selected range

Filename G:\CD\10cc - Live And Let Live (3721061) CD1.wav

Peak level 97.7 % Extraction speed 5.6 X Range quality 100.0 % Test CRC 9D727F22 Copy CRC 9D727F22 Copy OK

No errors occurred

AccurateRip summary

Track 1 not present in databaseTrack 2 not present in databaseTrack 3 not present in databaseTrack 4 not present in databaseTrack 5 not present in databaseTrack 6 not present in databaseTrack 7 not present in databaseTrack 8 not present in databaseTrack 9 not present in database

None of the tracks are present in the AccurateRip database

End of status report

==== Log checksum BC444F955439A61D29EA9074F35B020421EA4A4D185907F544C33674CE8E8E35 ====
Exact Audio Copy V1.0 beta 3 from 29. August 2011

EAC extraction logfile from 8. December 2012, 11:40

10cc / Live And Let Live (3721061) CD2

Used drive : ATAPI iHAS124 B Adapter: 2 ID: 0

Read mode : SecureUtilize accurate stream : YesDefeat audio cache : YesMake use of C2 pointers : No

Read offset correction : 6Overread into Lead-In and Lead-Out : NoFill up missing offset samples with silence : YesDelete leading and trailing silent blocks : NoNull samples used in CRC calculations : YesUsed interface : Native Win32 interface for Win NT & 2000

Used output format : User Defined EncoderSelected bitrate : 1024 kBit/sQuality : HighAdd ID3 tag : NoCommand line compressor : C:\Program Files (x86)\Exact Audio Copy\FLAC\FLAC.EXEAdditional command line options : -8 -V -T "ARTIST=%artist%" -T "TITLE=%title%" -T "ALBUM=%albumtitle%" -T "DATE=%year%" -T "TRACKNUMBER=%tracknr%" -T "GENRE=%genre%" -T "PERFORMER=%albuminterpret%" -T "COMPOSER=%composer%" %haslyrics%--tag-from-file=LYRICS="%lyricsfile%"%haslyrics% -T "ALBUMARTIST=%albumartist%" -T "DISCNUMBER=%cdnumber%" -T "TOTALDISCS=%totalcds%" -T "TOTALTRACKS=%numtracks%" -T "COMMENT=%comment%" %source% -o %dest%

TOC of the extracted CD

Track | Start | Length | Start sector | End sector --------------------------------------------------------- 1 | 0:00.00 | 3:11.04 | 0 | 14328 2 | 3:11.04 | 13:35.44 | 14329 | 75497 3 | 16:46.48 | 3:49.01 | 75498 | 92673 4 | 20:35.49 | 7:48.03 | 92674 | 127776 5 | 28:23.52 | 6:59.53 | 127777 | 159254 6 | 35:23.30 | 8:05.17 | 159255 | 195646

Range status and errors

Selected range

Filename G:\CD\10cc - Live And Let Live (3721061) CD2.wav

Peak level 97.7 % Extraction speed 5.5 X Range quality 100.0 % Test CRC 5809A3FB Copy CRC 5809A3FB Copy OK

No errors occurred

AccurateRip summary

Track 1 not present in databaseTrack 2 not present in databaseTrack 3 not present in databaseTrack 4 not present in databaseTrack 5 not present in databaseTrack 6 not present in database

None of the tracks are present in the AccurateRip database

End of status report

==== Log checksum 4E73671B841B1103D82EB161F04AC53E5BE5755FDC82E3FD74253AFE196FDC1B ====



Трекер:  [ 10-Дек-2012 06:33 ]

  

Скачать .torrent

Размер .torrent файла 15 KB


Размер: 2.02 GB
Хэш (hash) релиза: 54d4e9c9c5fbe8346788990c90bbc6739b29b3ae

Торренты, похожие на 10cc - Classic Album Selection: Five Albums 1975-1978 скачать торрент

Форум Название Автор Размер S L Добавлен
Зарубежный Rock ·· (Pop Rock, Clasic Rock, Art Rock) 10cc - Classic Album Selection: Five Albums 1975-1978 (Box Set, 6CD) - 2012, MP3, 320 kbps Galfimbul 870296468830 MB 0 0 1355112300

07:05

10-Дек-12

Еще никто не оставлял запись к записи скачать торрент 10cc - Classic Album Selection: Five Albums 1975-1978 . Будь первым!

!Обратная связь