Скачать через торрент музыку 10cc - Original Soundtrack бесплатно без регистрации torrent

Если у вас наблюдаются проблемы со скриншотами, переходом по ссылками, скачиванием торрентов - проблемы в блокировщике рекламы AdBlock. #хорошегоДня!


Статистика раздачи
Размер:  256 MB   |    Зарегистрирован:  4 года 11 месяцев   |    .torrent скачан:  36 раз   |   
Раздают:  1  
   
Загрузка...
 
Автор Сообщение

Galfimbul

avatar Galfimbul


10cc / Original Soundtrack [DCC Gold unreleased]

Жанр: Pop Rock, Clasic Rock, Art Rock
Страна-производитель диска: USA
Год издания: 1975
Издатель (лейбл): DCC
Страна: UK
Аудиокодек: FLAC (*.flac)
Тип рипа: image+.cue
Битрейт аудио: lossless
Продолжительность: 41:58
Источник (релизер): satori --> manhole (avax)
Наличие сканов в содержимом раздачи: да
Треклист:
1. Une Nuit a Paris: One Night in Paris, Pt.... (Creme/Godley) - 8:40
2. I'm Not in Love (Gouldman/Stewart) - 6:06
3. Blackmail (Gouldman/Stewart) - 4:28
4. The Second Sitting for the Last Supper (Creme/Godley/Gouldman/Stewart) - 4:25
5. Brand New Day (Creme/Godley) - 4:04
6. Flying Junk (Gouldman/Stewart) - 4:14
7. Life Is a Minestrone (Creme/Stewart) - 4:42
8. The Film of My Love (Creme/Godley) - 5:07
Exact Audio Copy V0.99 prebeta 5 from 4. May 2009

EAC extraction logfile from 27. August 2010, 16:59

10cc / The Original Soundtrack (1995 DCC GZS-1083)

Used drive : MATSHITADVD-RAM UJ-860H Adapter: 1 ID: 0

Read mode : SecureUtilize accurate stream : YesDefeat audio cache : YesMake use of C2 pointers : No

Read offset correction : 102Overread into Lead-In and Lead-Out : NoFill up missing offset samples with silence : YesDelete leading and trailing silent blocks : NoNull samples used in CRC calculations : YesUsed interface : Installed external ASPI interface

Used output format : User Defined EncoderSelected bitrate : 1024 kBit/sQuality : HighAdd ID3 tag : NoCommand line compressor : C:\Users\satori\Music\Codecs\wavpack\wavpack.exeAdditional command line options : -hlm %s

TOC of the extracted CD

Track | Start | Length | Start sector | End sector --------------------------------------------------------- 1 | 0:00.00 | 8:43.22 | 0 | 39246 2 | 8:43.22 | 6:07.15 | 39247 | 66786 3 | 14:50.37 | 4:31.50 | 66787 | 87161 4 | 19:22.12 | 4:28.13 | 87162 | 107274 5 | 23:50.25 | 4:05.22 | 107275 | 125671 6 | 27:55.47 | 4:12.10 | 125672 | 144581 7 | 32:07.57 | 4:45.40 | 144582 | 165996 8 | 36:53.22 | 5:04.38 | 165997 | 188834

Range status and errors

Selected range

Filename C:\temp\10cc - The Original Soundtrack (1995 DCC GZS-1083).wav

Peak level 100.0 % Range quality 100.0 % Test CRC E3627F3F Copy CRC E3627F3F Copy OK

No errors occurred

AccurateRip summary

Track 1 accurately ripped (confidence 12) [AD799D9C]Track 2 accurately ripped (confidence 11) [6780805F]Track 3 accurately ripped (confidence 11) [CFC6EA87]Track 4 accurately ripped (confidence 11) [A8984FB0]Track 5 accurately ripped (confidence 11) [73108274]Track 6 accurately ripped (confidence 12) [3064AC61]Track 7 accurately ripped (confidence 12) [7DB5AA1C]Track 8 accurately ripped (confidence 11) [3FFECA6B]

All tracks accurately ripped

End of status report


Трекер:  [ 10-Дек-2012 06:33 ]

  

Скачать .torrent

Размер .torrent файла 11 KB


Размер: 256 MB
Хэш (hash) релиза: 0fed050bae3d112766eeb231d92c783e8d76e5c1

Торренты, похожие на 10cc - Original Soundtrack скачать торрент

Форум Название Автор Размер S L Добавлен
Rосk | Mеtаl | Аltеrnаtivе, Рunk, Indереndеnt (losslеss) ·· (Rock) 10CC - Original Soundtrack - 1975 [SHM-CD] (Japan Press 2008, bonus tracks), FLAC (tracks+.cue), lossless Galfimbul 423909120404 MB 0 0 1297875528

19:58

16-Фев-11

Rосk | Mеtаl | Аltеrnаtivе, Рunk, Indереndеnt (losslеss) ·· (Progressive Related /Art Rock) 10CC (Japanesse Release) - Original Soundtrack - 1975, FLAC (image+.cue), lossless Galfimbul 282847272270 MB 0 0 1326393835

21:43

12-Янв-12

Еще никто не оставлял запись к записи скачать торрент 10cc - Original Soundtrack . Будь первым!

!Обратная связь