Скачать через торрент музыку Sanity - Sanity - 2003, APE бесплатно без регистрации torrent

Если у вас наблюдаются проблемы со скриншотами, переходом по ссылками, скачиванием торрентов - проблемы в блокировщике рекламы AdBlock. #хорошегоДня!


Статистика раздачи
Размер:  185 MB   |    Зарегистрирован:  4 года 10 месяцев   |    .torrent скачан:  7 раз   |   
Раздают:  1  
   
Загрузка...
 
Автор Сообщение

Galfimbul

avatar Galfimbul


Sanity / Sanity

Жанр: Symphonic prog / Progressive Metal
Страна-производитель диска: Netherlands
Год издания: 2003
Издатель (лейбл): Six Pack
Номер по каталогу: SMP 850218
Страна: Netherlands
Аудиокодек: APE (*.ape)
Тип рипа: image+.cue
Битрейт аудио: lossless
Продолжительность: 00:23:36
Источник (релизер): домашние закрома
Наличие сканов в содержимом раздачи: да
Треклист:
1. A Gathering of Souls (5:20)
2. Tribute to Shaffy (5:07)
3. Togheter as One (8:04)
4. Stolen from Idols (5:00)
Exact Audio Copy V1.0 beta 3 from 29. August 2011

Отчёт EAC об извлечении, выполненном 29. ноября 2012, 15:19

Sanity / Sanity

Дисковод: ASUS SDRW-08D1S-U Adapter: 1 ID: 0

Режим чтения : ДостоверностьИспользование точного потока : ДаОтключение кэша аудио : ДаИспользование указателей C2 : Нет

Коррекция смещения при чтении : 103Способность читать области Lead-in и Lead-out : НетЗаполнение пропущенных сэмплов тишиной : ДаУдаление блоков с тишиной в начале и конце : НетПри вычислениях CRC использовались нулевые сэмплы : ДаИнтерфейс : Встроенный Win32-интерфейс для Win NT/2000

Выходной формат : Пользовательский кодировщикВыбранный битрейт : 1024 kBit/sКачество : ВысокийДобавление ID3-тега : НетУтилита сжатия : C:\Program Files\Exact Audio Copy\Monkey's Audio\MAC.exeДополнительные параметры : %source% %dest% -c3000

TOC извлечённого CD

Трек | Старт | Длительность | Начальный сектор | Конечный сектор --------------------------------------------------------------------- 1 | 0:00.00 | 5:20.10 | 0 | 24009 2 | 5:20.10 | 5:10.07 | 24010 | 47266 3 | 10:30.17 | 8:06.50 | 47267 | 83766 4 | 18:36.67 | 5:00.58 | 83767 | 106324

Характеристики диапазона извлечения и сообщения об ошибках

Выбранный диапазон

Имя файла H:\!!!-МОИ РАЗДАЧИ-!!!\cd\Sanity (2003) - Sanity\Sanity - Sanity.wav

Пиковый уровень 98.8 % Скорость извлечения 1.6 X Качество диапазона 99.9 % CRC теста C124465C CRC копии C124465C Копирование... OK

Ошибок не произошло

Конец отчёта

---- CUETools DB Plugin V2.1.3

[CTDB TOCID: MLxcIT_7swF6Bng.ennqlRUOJjg-] disk not present in database, Submit result: MLxcIT_7swF6Bng.ennqlRUOJjg- has been uploaded

==== Контрольная сумма отчёта A1906FF6EB988E062C039BC335BEB66DF3428E7849505F39854C2FB18262216C ====
AUDIOCHECKER v2.0 beta (build 457) - by Dester - <a href="mailto:opdester@freemail.hu" class="postLink">opdester@freemail.hu</a>~~~~~~~~~~~~~~~~~~~~~~~~~~~~~~~~~~-=== НЕ РЕДАКТИРУЙТЕ ЭТОТ ФАЙЛ! ===-

Путь: ...\Sanity (2003) - Sanity

1 -=- Sanity - Sanity.ape -=- CDDA (99%)

184457892
Доп. информация: Музыка явно не премиум-класса, но вполне слушабельна. На ваш суд выносится второй из четырёх дисков, наработанных квинтетом голландцев.
SANITY are a Dutch progressive rock band, playing plain symphonic, melodic rock with a metal touch. Emotion is an important part of the music, which is characterised by fierce up-tempo pieces, gentle parts and atmospheric, sensitive excesses that seamlessly follow up one another. SANITY are Kees van KEULEN (vocals), Jeroen HOEGEE (guitars), Nathan CAIRO (keyboards), Ruud KOOL bass), and Fred den HARTOG (drums).
The lyrics of the original songs contain subjects such as grief and happiness and other aspects of human (emotional) life. Autobiographical elements are also included. SANITY's performances are intense and powerful, as well as visually attractive. The band receive very positive reviews from all over the globe and have already had various airplay. Reviewers compare SANITY's music to bands like IQ, THRESHOLD, MARILLION, QUEENSRYCHE and SAVATAGE, while they are hearing, amongst others, David BOWIE, BONO (U2) and Rod EVENS (DEEP PURPLE) in singer Kees van KEULEN's tone. Sanity presents new DVD and CD Leerdam, January 15th, 2005 The Dutch Progressive Rock band SANITY presents next week their DVD ' Live At 22', an integral registration of the concert the band played on Novemvber 20th, 2004 at Twentietoe in Tiel, The Netherlands. The DVD also includes a CD of the same concert, making it possible to enjoy the concert also on an audio installation The concert was recorded with five camera's while the band used a 24-tracks mobile studio for the audio registration. SANITY produced the DVD by their selves while members of the USA-band All Too Human co-produced the audio. For the mix the band used a.o. the studio's of Junkie XL while Peter van 't Riet (SYMPHONY X, AYREON, AFTER FOREVER, EPICA, and may other known bands)
took care of the mastering of the audio. SANITY published the DVD+CD by their selves. Distribution in the stores in The Netherlands will be done by Coast to Coast. The band is still looking for opportunities in other countries. Besides this international ordering is also possible at the SANITY website. As can be read at the website www.sanity.nl a lot is happened with SANITY in the previous season. 3-4 times a month SANITY was performing on stage in The Netherlands and Belgium. At the start of the season the band published the CD 'Sanity', which received great reviews as well in The Netherlands as in other countries in the world. Reason for Musea Records in France to
distribute this CD in more than 5...read more
- Kees van Keulen / vocals
- Jeroen Hoegee / guitars
- Nathan Cairo / keyboards
- Ruud Kool / bass guitars
- Fred den Hartog / drums


Трекер:  [ 10-Дек-2012 06:31 ]

  

Скачать .torrent

Размер .torrent файла 15 KB


Размер: 185 MB
Хэш (hash) релиза: 07defecc80828d1503281ea006e803cf6f175022

Еще никто не оставлял запись к записи скачать торрент Sanity - Sanity - 2003, APE . Будь первым!

!Обратная связь