Скачать через торрент музыку Indaco - Porte dOriente - 2005, FLAC бесплатно без регистрации torrent

Если у вас наблюдаются проблемы со скриншотами, переходом по ссылками, скачиванием торрентов - проблемы в блокировщике рекламы AdBlock. #хорошегоДня!


Статистика раздачи
Размер:  405 MB   |    Зарегистрирован:  4 года 11 месяцев   |    .torrent скачан:  21 раз   |   
Раздают:  1  
   
Загрузка...
 
Автор Сообщение

Galfimbul

avatar Galfimbul


Indaco / Porte d'Oriente
Жанр: Prog Folk
Год издания: 2005
Номер по каталогу: SQLCD08
Страна: Italy
Аудиокодек: FLAC (*.flac)
Тип рипа: image+.cue
Битрейт аудио: lossless
Продолжительность: 63:32
Источник (релизер): "East Rock" (vagabondo)
Наличие сканов в содержимом раздачи: да

Треклист:
1. Salentu (4:03)
2. Su nuraghe (5:30)
3. Andalusiana (4:36)
4. To the lighthouse (5:40)
5. Tharros (5:32)
6. Il volo del gabbiano (4:21)
7. Father P. (3:04)
8. Waiting for kundalini (7:02)
9. Soneanima (5:02)
10. Mantra (6:26)
11. Teatro do mar (5:33)
12. Amorgos (6:41)
Andalusiana Nel tempo Soneanima
|| progarchives.com || rateyourmusic.com ||
Exact Audio Copy V0.99 prebeta 5 from 4. May 2009

Отчёт EAC об извлечении, выполненном 2. июля 2011, 5:05

Indaco / Porte d'oriente

Дисковод: Optiarc DVD RW AD-7200A Adapter: 1 ID: 0

Режим чтения : ДостоверностьИспользование точного потока : ДаОтключение кэша аудио : ДаИспользование указателей C2 : Нет

Коррекция смещения при чтении : 48Способность читать области Lead-in и Lead-out : НетЗаполнение пропущенных сэмплов тишиной : ДаУдаление блоков с тишиной в начале и конце : НетПри вычислениях CRC использовались нулевые сэмплы : ДаИнтерфейс : Встроенный Win32-интерфейс для Win NT/2000

Выходной формат : Внутренние WAV-операцииФормат сэмплов : 44.100 Гц; 16 бит; стерео

TOC извлечённого CD

Трек | Старт | Длительность | Начальный сектор | Конечный сектор --------------------------------------------------------------------- 1 | 0:00.00 | 4:03.30 | 0 | 18254 2 | 4:03.30 | 5:29.63 | 18255 | 42992 3 | 9:33.18 | 4:36.31 | 42993 | 63723 4 | 14:09.49 | 5:40.19 | 63724 | 89242 5 | 19:49.68 | 5:31.22 | 89243 | 114089 6 | 25:21.15 | 4:21.18 | 114090 | 133682 7 | 29:42.33 | 3:04.32 | 133683 | 147514 8 | 32:46.65 | 7:01.33 | 147515 | 179122 9 | 39:48.23 | 5:02.10 | 179123 | 201782 10 | 44:50.33 | 6:26.31 | 201783 | 230763 11 | 51:16.64 | 5:32.73 | 230764 | 255736 12 | 56:49.62 | 6:41.05 | 255737 | 285816

Характеристики диапазона извлечения и сообщения об ошибках

Выбранный диапазон

Имя файла D:\Indaco - Porte d'oriente.wav

Пиковый уровень 99.8 % Качество диапазона 100.0 % CRC копии D1ECAD14 Копирование... OK

Ошибок не произошло

AccurateRip: сводка

Трек 1 точность не определена (достоверность 1) [1FC71EE8], AccurateRip вернул [470D3F66]Трек 2 точность не определена (достоверность 1) [C256923C], AccurateRip вернул [8C63C3E4]Трек 3 нет в базе данныхТрек 4 нет в базе данныхТрек 5 нет в базе данныхТрек 6 нет в базе данныхТрек 7 нет в базе данныхТрек 8 нет в базе данныхТрек 9 нет в базе данныхТрек 10 нет в базе данныхТрек 11 нет в базе данныхТрек 12 нет в базе данных

2 трек(и) не удалось проверить на точность10 трек(и) не содержатся в базе AccurateRip

Ни один трек не прошёл проверки на точностьВ вашей базе может быть иной вариант штамповки диска

Конец отчёта
REM GENRE Folk-RockREM DATE 2005REM DISCID AB0EE20CREM COMMENT "ExactAudioCopy v0.99pb5"PERFORMER "Indaco"TITLE "Porte d'oriente"FILE "Indaco - Porte d'oriente.ape" WAVE TRACK 01 AUDIO TITLE "Salentu" PERFORMER "Indaco" INDEX 01 00:00:00 TRACK 02 AUDIO TITLE "Su nuraghe" PERFORMER "Indaco" INDEX 00 04:00:30 INDEX 01 04:03:30 TRACK 03 AUDIO TITLE "Andalusiana" PERFORMER "Indaco" INDEX 00 09:30:18 INDEX 01 09:33:18 TRACK 04 AUDIO TITLE "To the lighthouse" PERFORMER "Indaco" INDEX 00 14:07:47 INDEX 01 14:09:49 TRACK 05 AUDIO TITLE "Tharros" PERFORMER "Indaco" INDEX 00 19:48:05 INDEX 01 19:49:68 TRACK 06 AUDIO TITLE "Il volo del gabbiano" PERFORMER "Indaco" INDEX 00 25:18:68 INDEX 01 25:21:15 TRACK 07 AUDIO TITLE "Father P." PERFORMER "Indaco" INDEX 00 29:40:21 INDEX 01 29:42:33 TRACK 08 AUDIO TITLE "Waiting for Kundalini" PERFORMER "Indaco" INDEX 00 32:44:27 INDEX 01 32:46:65 TRACK 09 AUDIO TITLE "Soneanima" PERFORMER "Indaco" INDEX 00 39:46:29 INDEX 01 39:48:23 TRACK 10 AUDIO TITLE "Mantra" PERFORMER "Indaco" INDEX 00 44:48:43 INDEX 01 44:50:33 TRACK 11 AUDIO TITLE "Teatro do mar" PERFORMER "Indaco" INDEX 00 51:15:55 INDEX 01 51:16:64 TRACK 12 AUDIO TITLE "Amorgos" PERFORMER "Indaco" INDEX 00 56:48:26 INDEX 01 56:49:62
[CUETools log; Date: 14.10.2012 15:30:43; Version: 2.1.1][CTDB TOCID: ZQL0E8TkJKnAqgBz2SPSmnsN2YY-] disk not present in database.[AccurateRip ID: 001ae5a7-00fd9948-ab0ee20c] found.Track [ CRC ] Status 01 [1fc71ee8] (0/1) No match 02 [c256923c] (0/1) No match 03 [1f355ecb] (0/0) No match 04 [a461f399] (0/0) No match 05 [7f9db838] (0/0) No match 06 [e5c9f73a] (0/0) No match 07 [6fdf4d3b] (0/0) No match 08 [a7cbbaa7] (0/0) No match 09 [38f11568] (0/0) No match 10 [e1bcab12] (0/0) No match 11 [deb86cb1] (0/0) No match 12 [ebb5e703] (0/0) No matchOffsetted by 676: 01 [6db82de8] (0/1) No match but offset 02 [8c63c3e4] (1/1) Accurately ripped 03 [36cb4bbb] (0/0) No match 04 [0c690ac1] (0/0) No match 05 [f0e0866c] (0/0) No match 06 [9512c706] (0/0) No match 07 [f8c5a007] (0/0) No match 08 [41ffb97f] (0/0) No match 09 [a1980be8] (0/0) No match 10 [01addd0a] (0/0) No match 11 [fd491435] (0/0) No match 12 [faac7da5] (0/0) No match

Track Peak [ CRC32 ] [W/O NULL] [ LOG ] -- 99,8 [D1ECAD14] [211E3983] CRC32 01 99,8 [B23128A3] [985780E0] 02 99,4 [52BEEF66] [66D78E6E] 03 96,6 [EE86C71C] [26EF748E] 04 96,6 [70792F6B] [CD911C5D] 05 99,4 [F4CE29D3] [53426F01] 06 99,4 [8BBDFC1C] [BB5D652B] 07 97,0 [588B9007] [5493D574] 08 99,4 [DBEFEE86] [624FFED4] 09 96,6 [53F249FF] [8E326AE7] 10 96,6 [A71E05A5] [EB04B647] 11 99,8 [F12EDE6D] [52E87D00] 12 99,4 [97ED6778] [19FDE1AA]
-----------------------

DON'T MODIFY THIS FILE

-----------------------

PERFORMER: auCDtect Task Manager, ver. 1.5.1RC4 build 1.5.1.5Copyright (c) 2008-2010 y-soft. All rights reservedhttp://y-soft.org

ANALYZER: auCDtect: CD records authenticity detector, version 0.8.2Copyright (c) 2004 Oleg Berngardt. All rights reserved.Copyright (c) 2004 Alexander Djourik. All rights reserved.

FILE: Indaco - Porte d'oriente.ape Size: 399901496 Hash: A7ED3BE75E78D7C9D3B0C58A5A153AA8 Accuracy: -m0 Conclusion: CDDA 100% Signature: 9081624160A26F69ABC4726E66A7D04C22CAC3D1
Indaco biography

This Italian super-group was started in 1991 by BANCO's guitarist Rodolfo Maltese and violinist Mario Pio Mancini. Within a prog context, the band successfully conveys the warmth of Mediterranean and Oriental melodies through the use of jazz and ethnic instrumentation. Their three studio albums alternately boast the collaboration of prestigious Italian musicians such as ex-BANCO's guitarist and drummer Pierluigi Calderoni, vocalist Francesco Di Giacomo and keyboardist Vittorio Nocenzi as well as PFM's flautist-violinist Mauro Pagani and TAZENDA's guitarist-songwriter Andrea Parodi. You will also find the names of Paolo Fresu, Daniele Sepe and the late jazz trumpeter Lester Bowie adorning their later CDs.

Featuring lots of bouzuki, flute and sitar among other instruments, the album "Vento Del Deserto" will bewitch you with its Middle-Eastern and Indian flavours whereas "Amorgos" (perhaps the proggiest album of the three) will transport you to the Greek island of the same name with the sounds of mandoline, bouzuki, violins and Lester Bowie's trumpet. As for "Terra Maris", it's a kaleidoscope of styles that run from Irish folk ballads to the jazzy accents of Paolo Fresu and Daniele Sepe and the torrid Spanish vocals of Gabriella Aiello - you'll even hear the band's own rendition of the BEATLES' "Norwegian Wood". The band has also released "Spezie Live" in 2001, an album made up mostly of live tracks plus a few studio cuts. The extraordinary musicianship, excellent production and originality of compositions make these albums a treasure to behold.

All are highly recommended to anyone slightly interested in sampling some very inspired ethnic music.

: : : Lise (HIBOU), CANADA : : :
http://www.progarchives.com/artist.asp?id=1545
Indaco - имя бывшей итальянской супер-группы этнической музыки, безусловно, одной из важных групп итальянской сцены. Группа существовала в период с 1992 года по 2007 год. Основали Indaco Mario Pio Mancini и Rodolfo Maltese, последний известен как гитарист Banco del Mutuo Soccorso.
Истоки группы восходят к 1992 году, когда Mancini (бузуки, скрипка, мандолина) и Maltese (гитара) решили создать группу исполняющую этническую музыку. Проект не рассматривался как реальная музыкальная группа: основа - пара музыкантов, которым в реализации их замыслов помогали бы приглашенные в качестве гостей музыканты.
Барабанщик Banco Пьерлуиджи Кальдерони принял участие в записи всех альбомов Indaco. В разное время с группой сотрудничали Франческо Ди Джакомо (Banco), Мауро Пагани (экс-PFM), Андреа Пароди.
В музыке Indaco соседствуют элементы рока, фьюжн, средиземноморского и восточного фольклора.
- Rodolfo Maltese / guitars
- Mario Pio Mancini / bouzouki, electric violin
- Arnaldo Vacca / percussions
- Pierluigi Calderoni / drums
- Luca Barberini / bass
- Carlo Mezzanotte / keyboards
- Gabriella Aiello / vocals
- Antonio Magli / keyboards

Guest musicians:
- Francesco Di Giacomo / vocals (5)
- Mauro Pagani / violin (3, 6, 8), flute (3)
- Tony Esposito / percussions (2)
- Enzo Gragnaniello / vocals (2, 3, 8, 11)
- Andrea Parodi / vocals (1, 9)
- Antonello Ricci / reed-pipe (3)
- Antonello Salis / accordion (5, 6)
- Fiona Davidson / harp, vocals (7)
- Lester Bowie / trumpet (12)
- Pivio / remix (12)



Трекер:  [ 10-Дек-2012 06:31 ]

  

Скачать .torrent

Размер .torrent файла 17 KB


Размер: 405 MB
Хэш (hash) релиза: a543aa8ff2f11073eb55cc38660992a85f115df4

Еще никто не оставлял запись к записи скачать торрент Indaco - Porte dOriente - 2005, FLAC . Будь первым!

!Обратная связь