Скачать через торрент музыку Claudio Gabis бесплатно без регистрации torrent

Если у вас наблюдаются проблемы со скриншотами, переходом по ссылками, скачиванием торрентов - проблемы в блокировщике рекламы AdBlock. #хорошегоДня!


Статистика раздачи
Размер:  221 MB   |    Зарегистрирован:  4 года 8 месяцев   |    .torrent скачан:  6 раз   |   
Раздают:  1  
   
Загрузка...
 
Автор Сообщение

Galfimbul

avatar Galfimbul


Claudio Gabis (ex-Manal) / Claudio Gabis (mini-Vinyl) 1974

Жанр: Psych,Blues Rock
Год издания: 2005
Аудиокодек: FLAC (*.flac)
Тип рипа: image+.cue
Битрейт аудио: lossless
Продолжительность: 38:22
Источник (релизер): my disc
Наличие сканов в содержимом раздачи: да
Треклист:
01. Esto Se Acaba Aqui [0:06:18.42]
02. Blues De La Tierra Supernova [0:02:56.37]
03. Danza Del Mago / Tema De Sonia [0:10:11.64]
04. Bajando A Buenos Aires / Blues De Un Domingo Lluvioso [0:09:01.10]
05. El Amor Tiene Cara De Oso [0:02:23.71]
06. Me Voy Lejos De La Ciudad [0:07:30.25]
Exact Audio Copy V0.99 prebeta 4 from 23. January 2008

Отчёт EAC об извлечении, выполненном 8. декабря 2012, 14:37

Claudio Gabis / Claudio Gabis

Дисковод: ASUS DRW-1814BL Adapter: 1 ID: 0

Режим чтения : ДостоверностьИспользование точного потока : ДаОтключение кэша аудио : ДаИспользование указателей C2 : Нет

Коррекция смещения при чтении : 6Способность читать области Lead-in и Lead-out : НетЗаполнение пропущенных сэмплов тишиной : ДаУдаление блоков с тишиной в начале и конце : НетПри вычислениях CRC использовались нулевые сэмплы : ДаИнтерфейс : Установленный внешний ASPI-интерфейс

Выходной формат : Пользовательский кодировщикВыбранный битрейт : 1024 kBit/sКачество : ВысокийДобавление ID3-тэга : НетУтилита сжатия : C:\Program Files\Exact Audio Copy\FLAC\FLAC.EXEДополнительные параметры : -6 -V -T "ARTIST=%a" -T "TITLE=%t" -T "ALBUM=%g" -T "DATE=%y" -T "TRACKNUMBER=%n" -T "GENRE=%m" -T "COMMENT=%e" %s -o %d

TOC извлечённого CD

Трек | Старт | Длительность | Начальный сектор | Конечный сектор --------------------------------------------------------------------- 1 | 0:00.00 | 6:18.42 | 0 | 28391 2 | 6:18.42 | 2:56.37 | 28392 | 41628 3 | 9:15.04 | 10:11.64 | 41629 | 87517 4 | 19:26.68 | 9:01.10 | 87518 | 128102 5 | 28:28.03 | 2:23.71 | 128103 | 138898 6 | 30:51.74 | 7:30.25 | 138899 | 172673

Характеристики диапазона извлечения и сообщения об ошибках

Выбранный диапазон

Имя файла D:\loSSleSS\Gabis'74\Claudio Gabis - Claudio Gabis.wav

Пиковый уровень 98.8 % Качество диапазона 100.0 % CRC теста 1908EF98 CRC копии 1908EF98 Копирование... OK

Ошибок не произошло

AccurateRip: сводка

Трек 1 точное извлечение (доверие 1) [2BD0B96E]Трек 2 точное извлечение (доверие 1) [ED46064F]Трек 3 точное извлечение (доверие 1) [E406E82C]Трек 4 точное извлечение (доверие 1) [CAF878C8]Трек 5 точное извлечение (доверие 1) [9980F038]Трек 6 точное извлечение (доверие 1) [01713138]

Все треки извлечены точно

Конец отчёта
В 1968 году Javier Martнnez-один из основателей аргентинского рок-движения в знаменитом музыкальном клубе La Cueva познакомился с басистом Alejandro Medina (ex-The Seasons) и гитаристом Claudio Gabis. После нескольких совместных сейшнов они решили создать блюз-рок трио по типу Cream,но поющее по испански,что в то время считалось невозможным. Назвались они Ricota (сорт сыра),но это название продержалось менее полугода. В Аргентине открывалась звукозаписывающая компания Mandioca (в последствии ставшая очень знаменитой ) и продюссеры Jorge Еlvarez и Pedro Pujу предложили трио стать первыми действуйщими музыкантами компании предварительно сменив название на Manal. Первый сингл группы вышел 12 ноября 1968 года. Песня с него" Que Pena Me Das! " стала аргентинским хитом .Второй сингл вышел в середине 1969 года и тоже возглавил таблицу популярности. В 1970 году вышел первый альбом группы ставший на данный момент классикой латино-американского блюз-рока. Он показал великолепное исполнительское мастерство музыкантов и особенно гитару Claudio Gabis.


Трекер:  [ 10-Дек-2012 06:32 ]

  

Скачать .torrent

Размер .torrent файла 18 KB


Размер: 221 MB
Хэш (hash) релиза: 85105fc67ea258ac83944c353b0f27f75f5ac871

Еще никто не оставлял запись к записи скачать торрент Claudio Gabis . Будь первым!

!Обратная связь