Скачать через торрент музыку Saigon Kick - Дискография бесплатно без регистрации torrent

Если у вас наблюдаются проблемы со скриншотами, переходом по ссылками, скачиванием торрентов - проблемы в блокировщике рекламы AdBlock. #хорошегоДня!


Статистика раздачи
Размер:  1.44 GB   |    Зарегистрирован:  4 года 11 месяцев   |    .torrent скачан:  14 раз   |   
Раздают:  1  
   
Загрузка...
 
Автор Сообщение

Galfimbul

avatar Galfimbul


Saigon Kick-Дискография [1991-1995]
Жанр: Hard Rock/Heavy Metal
Год издания: 1991-1995
Страна: USA
Аудиокодек: FLAC (*.flac)
Тип рипа: image+.cue
Битрейт аудио: lossless
Продолжительность: 03:28:22
Источник (релизер): Собственная коллекция
Наличие сканов в содержимом раздачи: да
Страна: USA
Штат: Florida
Город:Tampa
Данную команду из Майами отличали отсутствие боязни экспериментов со
звуком, а также интеллигентные, хотя зачастую провокационные тексты.
Группа образовалась в 1988 году со стартовым составом из Мэтта Крамера
(вокал), Джейсона Байлера (гитара), Тома ДеФайла (бас) и Фила Вароуна
(ударные). Около двух лет коллектив выступал во флоридских клубах и среди
местного населения обрел множество поклонников. В 1990 году квартет угодил
в поле зрения "Atlantic Records", и фирма организовала музыкантам контракт
со своей дочерней конторой "Third Stone". Всего одиннадцать дней
потребовалось "Saigon Kick", чтобы записать дебютный альбом. Однако,
несмотря на столь сжатые сессионный срок и черно-белую обложку публика
довольно охотно покупала пластинку.
Откатав промогастроли в компании с "Cheap Trick" и "King's X", группа
взялась за вторую полнометражку и на сей раз достигла наибольшего успеха.
Представленный на "The Lizard" материал был довольно разнообразным:
музыкантам удалось смешать глэм-металл с фолком и мелодиями в стиле 60-х.
Главным же гвоздем программы стала баллада "Love Is On The Way", занявшая
12-е место в списках "Billboard". Соответствующий клип несколько недель
присутствовал в горячей десятке MTV, что обеспечило "The Lizard" золотой
статус продаж. В поддержку альбома "Saigon Kick" провели турне на
разогреве у тогдашних покорителей чартов "Extreme", однако внутренние
взаимоотношения в команде оставляли желать лучшего. Первым из группы
вышвырнули ДеФайла, на чьем месте материализовался Крис МакЛернон. Одной
замены оказалось мало, и в дальнейшем усилившиеся музыкально-стилевые
разногласия привели к отставке Крамера. Фронтмен ушел уже после начала
сессий альбома "Water", а функции лидер-вокала взял на себя Байлер.
Диск, выпущенный в разгар гранжа, не произвел никакого впечатления на
американскую публику, хотя в некоторых странах (особенно азиатского
региона) "Saigon Kick" сохраняли популярность. Вызвав подкрепление в лице
экс-гитариста "Screams-N-Dreams" Пита Дембровски, команда отправилась
колесить за пределами Штатов, а по возвращении домой обнаружила что
контракт с "Atlantic" утрачен.
Временное прибежище коллектив получил под крышей "CMC International", где
в 1995 году вышел диск "Devil In The Details". По разноплановости работа
не уступала "The Lizard" - в ней чувствовалось влияние "Queen", "King's X"
и "Extreme", а акустические номера ("Spanish Rain") соседствовали с
поп-мелодиями ("Victoria") и забойными рокешниками ("Killing Ground").
Впрочем, американскую аудиторию по прежнему не интересовала подобная
музыка, и группе приходилось зарабатывать себе на жизнь выступлениями в
других странах. В 1997-м в команду вернулся Крамер, однако уже спустя два
концерта (сыгранных с Рики Сандерсом вместо Вароуна) его и след простыл.
На следующий год в свет вышли два сборника: "Greatest Mrs." - с лучшими
вещами и "Moments From The Fringe" - с архивными демозаписями и прочим
неликвидом.
Чуть позже "Saigon Kick" выпустили свеженький компакт "Bastards", но
материал, представленный на нем, разительно отличался от ранних работ и
выглядел слишком прилизанно-попсовым. На стыке тысячелетий команда с
вернувшимся Крамером попробовала дать еще один залп в виде концертника
"Greatest Hits Live", после чего ее музыканты расползлись по разным
проектам.
Страна производитель диска:USA
Год издания:1991
Издатель (лейбл):Third Stone/Atlantic
Номер по каталогу:7 91634-2
Продолжительность: 00:50:21
Треклист:
01 New World [5:42.12]
02 What You Say [3:49.00]
03 What Do You Do [2:40.20]
04 Suzy [3:40.05]
05 Colors [3:43.23]
06 Coming Home [4:16.47]
07 Love Of God [4:00.28]
08 Down By The Ocean [2:35.22]
09 Acid Rain [1:38.70]
10 My Life [4:45.65]
11 Month Of Sundays [2:26.40]
12 Ugly [2:36.15]
13 Come Take Me Now [4:37.38]
14 I.C.U. [3:49.62]
Exact Audio Copy V1.0 beta 3 from 29. August 2011

Отчёт EAC об извлечении, выполненном 7. декабря 2012, 11:40

Saigon Kick / Saigon Kick

Дисковод: ATAPI iHAS124 B Adapter: 2 ID: 1

Режим чтения : ДостоверностьИспользование точного потока : ДаОтключение кэша аудио : ДаИспользование указателей C2 : Нет

Коррекция смещения при чтении : 6Способность читать области Lead-in и Lead-out : НетЗаполнение пропущенных сэмплов тишиной : ДаУдаление блоков с тишиной в начале и конце : НетПри вычислениях CRC использовались нулевые сэмплы : ДаИнтерфейс : Встроенный Win32-интерфейс для Win NT/2000

Выходной формат : Внутренние WAV-операцииФормат сэмплов : 44.100 Гц; 16 бит; стерео

TOC извлечённого CD

Трек | Старт | Длительность | Начальный сектор | Конечный сектор --------------------------------------------------------------------- 1 | 0:00.00 | 5:42.12 | 0 | 25661 2 | 5:42.12 | 3:49.00 | 25662 | 42836 3 | 9:31.12 | 2:40.20 | 42837 | 54856 4 | 12:11.32 | 3:40.05 | 54857 | 71361 5 | 15:51.37 | 3:43.23 | 71362 | 88109 6 | 19:34.60 | 4:16.47 | 88110 | 107356 7 | 23:51.32 | 4:00.28 | 107357 | 125384 8 | 27:51.60 | 2:35.22 | 125385 | 137031 9 | 30:27.07 | 1:38.70 | 137032 | 144451 10 | 32:06.02 | 4:45.65 | 144452 | 165891 11 | 36:51.67 | 2:26.40 | 165892 | 176881 12 | 39:18.32 | 2:36.15 | 176882 | 188596 13 | 41:54.47 | 4:37.38 | 188597 | 209409 14 | 46:32.10 | 3:49.62 | 209410 | 226646

Характеристики диапазона извлечения и сообщения об ошибках

Выбранный диапазон

Имя файла C:\Users\Андрей\Desktop\Saigon Kick\Saigon Kick-1991-Saigon Kick\Saigon Kick - Saigon Kick.wav

Пиковый уровень 100.0 % Скорость извлечения 5.6 X Качество диапазона 100.0 % CRC теста 1B5B772C CRC копии 1B5B772C Копирование... OK

Ошибок не произошло

AccurateRip: сводка

Трек 1 : извлечено точно (доверие 3) [A0DA2763] (AR v1)Трек 2 : извлечено точно (доверие 3) [DA5DBF7D] (AR v1)Трек 3 : извлечено точно (доверие 3) [4411CFEA] (AR v1)Трек 4 : извлечено точно (доверие 3) [E62BFAB0] (AR v1)Трек 5 : извлечено точно (доверие 3) [ED8E54A7] (AR v1)Трек 6 : извлечено точно (доверие 3) [042F2A21] (AR v1)Трек 7 : извлечено точно (доверие 3) [5D8AE152] (AR v1)Трек 8 : извлечено точно (доверие 3) [983BE63C] (AR v1)Трек 9 : извлечено точно (доверие 3) [F72FB005] (AR v1)Трек 10 : извлечено точно (доверие 3) [C26B16ED] (AR v1)Трек 11 : извлечено точно (доверие 3) [EF1E2A20] (AR v1)Трек 12 : извлечено точно (доверие 3) [D8F75160] (AR v1)Трек 13 : извлечено точно (доверие 3) [842BF3A0] (AR v1)Трек 14 : извлечено точно (доверие 3) [7ADE3A68] (AR v1)

Все треки извлечены точно

Конец отчёта

==== Контрольная сумма отчёта FFDD058DAD33E4F4BA6627149C142D98CC85A101E4A65800BBC6140785F518DD ====
Страна производитель диска:USA
Год издания:1992
Издатель (лейбл):Third Stone/Atlantic
Номер по каталогу:7 92158-2
Продолжительность: 00:53:26
Треклист:
01. Cruelty [ 2:40.57]
02. Hostile Youth [3:18.33]
03. Feel The Same Way [2:42.40]
04. Freedom [4:12.45]
05. God Of 42nd Street [3:59.45]
06. My Dog [0:51.67]
07. Peppermint Tribe [4:52.50]
08. Love Is On The Way [4:23.70]
09. The Lizard [4:02.10]
10. All Alright [3:54.73]
11. Sleep [1:00.65]
12. All I Want [3:44.52]
13. Body Bags [3:21.45]
14. Miss Jones [2:39.10]
15. World Goes Round [4:54.45]
16. Chanel [2:46.30]
xact Audio Copy V1.0 beta 3 from 29. August 2011

Отчёт EAC об извлечении, выполненном 7. декабря 2012, 15:30

Saigon Kick / The Lizard

Дисковод: ATAPI iHAS124 B Adapter: 2 ID: 1

Режим чтения : ДостоверностьИспользование точного потока : ДаОтключение кэша аудио : ДаИспользование указателей C2 : Нет

Коррекция смещения при чтении : 6Способность читать области Lead-in и Lead-out : НетЗаполнение пропущенных сэмплов тишиной : ДаУдаление блоков с тишиной в начале и конце : НетПри вычислениях CRC использовались нулевые сэмплы : ДаИнтерфейс : Встроенный Win32-интерфейс для Win NT/2000

Выходной формат : Внутренние WAV-операцииФормат сэмплов : 44.100 Гц; 16 бит; стерео

TOC извлечённого CD

Трек | Старт | Длительность | Начальный сектор | Конечный сектор --------------------------------------------------------------------- 1 | 0:00.33 | 2:40.57 | 33 | 12089 2 | 2:41.15 | 3:18.33 | 12090 | 26972 3 | 5:59.48 | 2:42.40 | 26973 | 39162 4 | 8:42.13 | 4:12.45 | 39163 | 58107 5 | 12:54.58 | 3:59.45 | 58108 | 76077 6 | 16:54.28 | 0:51.67 | 76078 | 79969 7 | 17:46.20 | 4:52.50 | 79970 | 101919 8 | 22:38.70 | 4:23.70 | 101920 | 121714 9 | 27:02.65 | 4:02.10 | 121715 | 139874 10 | 31:05.00 | 3:54.73 | 139875 | 157497 11 | 34:59.73 | 1:00.65 | 157498 | 162062 12 | 36:00.63 | 3:44.52 | 162063 | 178914 13 | 39:45.40 | 3:21.45 | 178915 | 194034 14 | 43:07.10 | 2:39.10 | 194035 | 205969 15 | 45:46.20 | 4:54.45 | 205970 | 228064 16 | 50:40.65 | 2:46.30 | 228065 | 240544

Характеристики диапазона извлечения и сообщения об ошибках

Выбранный диапазон

Имя файла C:\Users\Андрей\Desktop\Новая папка\Saigon Kick - The Lizard.wav

Пиковый уровень 99.9 % Скорость извлечения 5.7 X Качество диапазона 100.0 % CRC теста 386732B5 CRC копии 386732B5 Копирование... OK

Ошибок не произошло

AccurateRip: сводка

Трек 1 : извлечено точно (доверие 21) [D28809F4] (AR v1)Трек 2 : извлечено точно (доверие 21) [6808A17D] (AR v1)Трек 3 : извлечено точно (доверие 21) [097682EC] (AR v1)Трек 4 : извлечено точно (доверие 21) [6114EF4D] (AR v1)Трек 5 : извлечено точно (доверие 21) [3429EB5B] (AR v1)Трек 6 : извлечено точно (доверие 21) [219AA0E0] (AR v1)Трек 7 : извлечено точно (доверие 21) [6195FEC5] (AR v1)Трек 8 : извлечено точно (доверие 22) [45FCBB4B] (AR v1)Трек 9 : извлечено точно (доверие 21) [E25AFD37] (AR v1)Трек 10 : извлечено точно (доверие 21) [93C5857F] (AR v1)Трек 11 : извлечено точно (доверие 21) [3C4FEDF2] (AR v1)Трек 12 : извлечено точно (доверие 21) [28BDDB6C] (AR v1)Трек 13 : извлечено точно (доверие 21) [881776F8] (AR v1)Трек 14 : извлечено точно (доверие 21) [0650BC52] (AR v1)Трек 15 : извлечено точно (доверие 21) [2FB104A0] (AR v1)Трек 16 : извлечено точно (доверие 21) [31ED1637] (AR v1)

Все треки извлечены точно

Конец отчёта

==== Контрольная сумма отчёта DE7FA73BD1ABF959B4690ECD073305239317965AF0DF89AEE70C63A629DC04AC ====
Страна производитель диска:USA
Год издания:1993
Издатель (лейбл):Third Stone/Atlantic
Номер по каталогу:7 92300-2
Продолжительность: 00:52:38
Треклист:
1. One Step Closer [3:52.05]
02. Space Oddity (David Bowie cover) [5:23.35]
03. Water [4:59.23]
04. Torture [3:45.10]
05. Fields Of Rape [4:45.35]
06. I Love You [3:39.17]
07. Sgt. Steve [2:09.58]
08. My Heart [3:49.20]
09. On And On [3:26.70]
10. The Way [4:56.35]
11. Sentimental Girl [2:35.60]
12. Close To You [3:35.25]
13. When You Were Mine [3:57.50]
14. Reprise [1:42.70]
Exact Audio Copy V1.0 beta 3 from 29. August 2011

Отчёт EAC об извлечении, выполненном 7. декабря 2012, 18:23

Saigon Kick / Water

Дисковод: ATAPI iHAS124 B Adapter: 2 ID: 1

Режим чтения : ДостоверностьИспользование точного потока : ДаОтключение кэша аудио : ДаИспользование указателей C2 : Нет

Коррекция смещения при чтении : 6Способность читать области Lead-in и Lead-out : НетЗаполнение пропущенных сэмплов тишиной : ДаУдаление блоков с тишиной в начале и конце : НетПри вычислениях CRC использовались нулевые сэмплы : ДаИнтерфейс : Встроенный Win32-интерфейс для Win NT/2000

Выходной формат : Внутренние WAV-операцииФормат сэмплов : 44.100 Гц; 16 бит; стерео

TOC извлечённого CD

Трек | Старт | Длительность | Начальный сектор | Конечный сектор --------------------------------------------------------------------- 1 | 0:00.32 | 3:52.05 | 32 | 17436 2 | 3:52.37 | 5:23.35 | 17437 | 41696 3 | 9:15.72 | 4:59.23 | 41697 | 64144 4 | 14:15.20 | 3:45.10 | 64145 | 81029 5 | 18:00.30 | 4:45.35 | 81030 | 102439 6 | 22:45.65 | 3:39.17 | 102440 | 118881 7 | 26:25.07 | 2:09.58 | 118882 | 128614 8 | 28:34.65 | 3:49.20 | 128615 | 145809 9 | 32:24.10 | 3:26.70 | 145810 | 161329 10 | 35:51.05 | 4:56.35 | 161330 | 183564 11 | 40:47.40 | 2:35.60 | 183565 | 195249 12 | 43:23.25 | 3:35.25 | 195250 | 211399 13 | 46:58.50 | 3:57.50 | 211400 | 229224 14 | 50:56.25 | 1:42.70 | 229225 | 236944

Характеристики диапазона извлечения и сообщения об ошибках

Выбранный диапазон

Имя файла C:\Users\Андрей\Desktop\Новая папка\Saigon Kick - Water.wav

Пиковый уровень 100.0 % Скорость извлечения 6.2 X Качество диапазона 100.0 % CRC теста F710B87E CRC копии F710B87E Копирование... OK

Ошибок не произошло

AccurateRip: сводка

Трек 1 : извлечено точно (доверие 2) [969B20ED] (AR v2)Трек 2 : извлечено точно (доверие 2) [370A2B1F] (AR v2)Трек 3 : извлечено точно (доверие 2) [C28987C9] (AR v2)Трек 4 : извлечено точно (доверие 2) [8DA53280] (AR v2)Трек 5 : извлечено точно (доверие 2) [2009512D] (AR v2)Трек 6 : извлечено точно (доверие 2) [A99C3D79] (AR v2)Трек 7 : извлечено точно (доверие 2) [E4EF3285] (AR v2)Трек 8 : извлечено точно (доверие 2) [7EAEF6D0] (AR v2)Трек 9 : извлечено точно (доверие 2) [25038B84] (AR v2)Трек 10 : извлечено точно (доверие 2) [ECB67512] (AR v2)Трек 11 : извлечено точно (доверие 2) [C4E8F212] (AR v2)Трек 12 : извлечено точно (доверие 2) [D4D0433F] (AR v2)Трек 13 : извлечено точно (доверие 2) [7A751685] (AR v2)Трек 14 : извлечено точно (доверие 2) [B726404A] (AR v2)

Все треки извлечены точно

Конец отчёта

==== Контрольная сумма отчёта 0EE8987B2628B4B0E77372EDCE8491EBE610D3F529ED74203716B0A61ED20ABA ====
Страна производитель диска:Canada
Год издания:1995
Издатель (лейбл):CMC International
Номер по каталогу:CMC 7903
Продолжительность: 00:51:57
Треклист:
01 Intro [1:14.37]
02 Russian Girl [4:14.03]
03 Killing Ground [3:45.70]
04 Eden [5:02.07]
05 Going On [4:45.68]
06 Everybody [2:53.52]
07 Spanish Rain [5:02.50]
08 Flesh And Bone [3:53.60]
09 Sunshine [3:52.30]
10 Victoria [4:23.15]
11 Afraid [4:10.40]
12 So Painfully [3:10.15]
13 Edgar [3:14.05]
14 All Around [2:14.30]
Exact Audio Copy V1.0 beta 3 from 29. August 2011

Отчёт EAC об извлечении, выполненном 7. декабря 2012, 21:22

Saigon Kick / Devil In The Details

Дисковод: ATAPI iHAS124 B Adapter: 2 ID: 1

Режим чтения : ДостоверностьИспользование точного потока : ДаОтключение кэша аудио : ДаИспользование указателей C2 : Нет

Коррекция смещения при чтении : 6Способность читать области Lead-in и Lead-out : НетЗаполнение пропущенных сэмплов тишиной : ДаУдаление блоков с тишиной в начале и конце : НетПри вычислениях CRC использовались нулевые сэмплы : ДаИнтерфейс : Встроенный Win32-интерфейс для Win NT/2000

Выходной формат : Внутренние WAV-операцииФормат сэмплов : 44.100 Гц; 16 бит; стерео

TOC извлечённого CD

Трек | Старт | Длительность | Начальный сектор | Конечный сектор --------------------------------------------------------------------- 1 | 0:00.00 | 1:14.37 | 0 | 5586 2 | 1:14.37 | 4:14.03 | 5587 | 24639 3 | 5:28.40 | 3:45.70 | 24640 | 41584 4 | 9:14.35 | 5:02.07 | 41585 | 64241 5 | 14:16.42 | 4:45.68 | 64242 | 85684 6 | 19:02.35 | 2:53.52 | 85685 | 98711 7 | 21:56.12 | 5:02.50 | 98712 | 121411 8 | 26:58.62 | 3:53.60 | 121412 | 138946 9 | 30:52.47 | 3:52.30 | 138947 | 156376 10 | 34:45.02 | 4:23.15 | 156377 | 176116 11 | 39:08.17 | 4:10.40 | 176117 | 194906 12 | 43:18.57 | 3:10.15 | 194907 | 209171 13 | 46:28.72 | 3:14.05 | 209172 | 223726 14 | 49:43.02 | 2:14.30 | 223727 | 233806

Характеристики диапазона извлечения и сообщения об ошибках

Выбранный диапазон

Имя файла C:\Users\Андрей\Desktop\Новая папка\Saigon Kick - Devil In The Details.wav

Пиковый уровень 100.0 % Скорость извлечения 3.1 X Качество диапазона 99.9 % CRC теста 218DE141 CRC копии 218DE141 Копирование... OK

Ошибок не произошло

AccurateRip: сводка

Трек 1 : извлечено точно (доверие 2) [E59711A5] (AR v2)Трек 2 : извлечено точно (доверие 2) [93BD937E] (AR v2)Трек 3 : извлечено точно (доверие 2) [6A90D83E] (AR v2)Трек 4 : извлечено точно (доверие 2) [391140CC] (AR v2)Трек 5 : извлечено точно (доверие 2) [C9F2A09A] (AR v2)Трек 6 : извлечено точно (доверие 2) [471BF834] (AR v2)Трек 7 : извлечено точно (доверие 5) [04DBD50D] (AR v1)Трек 8 : извлечено точно (доверие 4) [FFA1494F] (AR v1)Трек 9 : извлечено точно (доверие 2) [832BF798] (AR v2)Трек 10 : извлечено точно (доверие 2) [E59FC842] (AR v2)Трек 11 : извлечено точно (доверие 2) [7BE2318D] (AR v2)Трек 12 : извлечено точно (доверие 2) [91766CE9] (AR v2)Трек 13 : извлечено точно (доверие 2) [105A79A5] (AR v2)Трек 14 : извлечено точно (доверие 2) [70D81790] (AR v2)

Все треки извлечены точно

Конец отчёта

==== Контрольная сумма отчёта 28CDAD3B315F6CB4CBBF54D00EC978CCA02B5FE198D7C269BC6ACDB900C0657E ====


Трекер:  [ 10-Дек-2012 06:31 ]

  

Скачать .torrent

Размер .torrent файла 19 KB


Размер: 1.44 GB
Хэш (hash) релиза: 224e83f71c2f6ac481d5c0939d7a4531e8e013a6

Еще никто не оставлял запись к записи скачать торрент Saigon Kick - Дискография . Будь первым!

!Обратная связь