Скачать через торрент музыку TSA - TSA w Trójce. Koncert akustyczny - 1999, FLAC бесплатно без регистрации torrent

Если у вас наблюдаются проблемы со скриншотами, переходом по ссылками, скачиванием торрентов - проблемы в блокировщике рекламы AdBlock. #хорошегоДня!


Статистика раздачи
Размер:  413 MB   |    Зарегистрирован:  4 года 8 месяцев   |    .torrent скачан:  12 раз   |   
Раздают:  1  
   
Загрузка...
 
Автор Сообщение

Galfimbul

avatar Galfimbul


TSA / TSA w Trójce. Koncert akustyczny

Жанр: Hard Rock / Heavy Metal
Год издания: 1999
Издатель (лейбл): Warner Music Polska
Номер по каталогу: 3984 26940 2
Страна: Poland
Аудиокодек: FLAC (*.flac)
Тип рипа: tracks
Битрейт аудио: lossless
Продолжительность: 01:10:44
Источник (релизер): Польский треккер
Наличие сканов в содержимом раздачи: нет
Треклист:
1. Zapowiedź – 02:04
2. Plan życia – 04:43
3. Chodzą ludzie – 04:12
4. Trzy zapałki – 06:11
5. Wpadka – 04:07
6. 51 – 06:42
7. Alien – 05:24
8. Maratończyk – 08:00
9. Jodyna – 04:13
10. Tekst Marka – 01:02
11. Bez podtekstów – 06:23
12. 52 dla przyjaciół – 08:33
13. Blues dla Kaczora – 09:10
Exact Audio Copy V0.99 prebeta 5 from 4. May 2009

Sprawozdanie ze zgrywania programem EAC z 6. Listopada 2010, 13:21

T S A / TSA w Trojce - Koncert Akustyczny

Uїyty napкd: HL-DT-STDVD-RAM GH22NP20 Adapter: 0 ID: 0

Tryb odczytu: : BezpiecznyDokіadny strumieс : TakNeutralizacja bufora napкdu : TakZwracanie bікdуw C2 : Nie

Korekta poіoїenia dla odczytu : 102Nadczytywanie w obszarach LeadIn i LeadOut : NieDopeіnianie cisz№ brakuj№cych prуbek : TakUsuwanie pocz№tkowych i koсcowych blokуw ciszy : NieDo przeliczenia sumy kontrolnej CRC uїywane s№ prуbki zerowe : NieInterfejs : Wewnкtrzny interfejs Win32 dla Windows NT i 2000

Uїyty format wyjњciowy : Koder uїytkownikaWybrana przepіywnoњж bitуw : 768 kBit/sJakoњж : WysokaDodawanie znacznikуw ID3 : TakKompresor linii poleceс : C:\Program Files\Exact Audio Copy\FLAC\FLAC.EXEDodatkowe opcje linii poleceс : -6 -V -T "ARTIST=%a" -T "TITLE=%t" -T "ALBUM=%g" -T "DATE=%y" -T "TRACKNUMBER=%n" -T "GENRE=%m" -T "COMMENT=%e" %s -o %d

TOC zgranej pіyty

Utwуr | Pocz№tek | Dіugoњж | Sektor pocz№tkowy | Sektor koсcowy ------------------------------------------------------------------ 1 | 0:00.00 | 2:04.33 | 0 | 9332 2 | 2:04.33 | 4:42.50 | 9333 | 30532 3 | 6:47.08 | 4:12.15 | 30533 | 49447 4 | 10:59.23 | 6:10.61 | 49448 | 77258 5 | 17:10.09 | 4:07.13 | 77259 | 95796 6 | 21:17.22 | 6:41.41 | 95797 | 125912 7 | 27:58.63 | 5:24.28 | 125913 | 150240 8 | 33:23.16 | 7:59.65 | 150241 | 186230 9 | 41:23.06 | 4:13.04 | 186231 | 205209 10 | 45:36.10 | 1:01.64 | 205210 | 209848 11 | 46:37.74 | 6:22.51 | 209849 | 238549 12 | 53:00.50 | 8:33.03 | 238550 | 277027 13 | 61:33.53 | 9:10.22 | 277028 | 318299

Stan i bікdy zakresu

Wybrany zakres

Њcieїka pliku E:\- U D O S T К P N I A N E -\TSA - TSA w Trуjce. Koncert akustyczny (1999) [FLAC]\T S A - TSA w Trojce - Koncert Akustyczny.wav

Poziom wysterowania 89.0 % Jakoњж zakresu 100.0 % CRC kopii FA1F5E56 Kopia bezbікdna

Nie byіo bікdуw

Podsumowanie AccurateRip

Nagranie 1 zgrane bezbікdnie (wiarygodnoњж 4) [D0E7098A]Nagranie 2 zgrane bezbікdnie (wiarygodnoњж 4) [22A44DF3]Nagranie 3 zgrane bezbікdnie (wiarygodnoњж 4) [45CDD58C]Nagranie 4 zgrane bezbікdnie (wiarygodnoњж 4) [5FF20F50]Nagranie 5 zgrane bezbікdnie (wiarygodnoњж 4) [C290533F]Nagranie 6 zgrane bezbікdnie (wiarygodnoњж 4) [58385209]Nagranie 7 zgrane bezbікdnie (wiarygodnoњж 4) [2E5ABD10]Nagranie 8 zgrane bezbікdnie (wiarygodnoњж 4) [C9116EF7]Nagranie 9 zgrane bezbікdnie (wiarygodnoњж 4) [9F12BE92]Nagranie 10 zgrane bezbікdnie (wiarygodnoњж 4) [A32CF29A]Nagranie 11 zgrane bezbікdnie (wiarygodnoњж 4) [9C751A4E]Nagranie 12 zgrane bezbікdnie (wiarygodnoњж 4) [F518409C]Nagranie 13 zgrane bezbікdnie (wiarygodnoњж 4) [CFBA3424]

Wszystkie nagrania zostaіy zgrane akuratnie

Koniec raportu
-----------------------

DON'T MODIFY THIS FILE

-----------------------

PERFORMER: auCDtect Task Manager, ver. 1.5.1RC6 build 1.5.1.7Copyright (c) 2008-2010 y-soft. All rights reservedhttp://y-soft.org

ANALYZER: auCDtect: CD records authenticity detector, version 0.8.2Copyright (c) 2004 Oleg Berngardt. All rights reserved.Copyright (c) 2004 Alexander Djourik. All rights reserved.

FILE: 13. Blues dla Kaczora.flac Size: 58359197 Hash: EB08ABAB9FC64CD9CA8E1BEFAAD506C9 Accuracy: -m0 Conclusion: CDDA 100% Signature: C8B3CF4A64CB4221A050D6FE9F2CF3D2475830F2FILE: 12. 52 dla przyjaciól.flac Size: 62605930 Hash: 9CACBDAD7D54C075B65F20A84E66C357 Accuracy: -m0 Conclusion: CDDA 100% Signature: 8678CE3894864BC17E032BF9859D5E07A43E3AD6FILE: 11. Bez podtekstów.flac Size: 41423783 Hash: D78A86C7310593FB0FFE73738E316713 Accuracy: -m0 Conclusion: CDDA 100% Signature: 07EAC9356A8977C06C106561A751DEB5DDA481E3FILE: 10. Tekst Marka.flac Size: 4973654 Hash: 02255BC85D5F704AF23B84E8AFB2A4D1 Accuracy: -m0 Conclusion: CDDA 99% Signature: FA5ED41175BBD7F04F4B413FDD313F0062CC98AAFILE: 09. Jodyna.flac Size: 22439305 Hash: AED05E9DE896F3B3A712C1460155EDA1 Accuracy: -m0 Conclusion: CDDA 100% Signature: E4B24AD682A618F0B9BBD1FBC6F132D246AF4C25FILE: 08. Maratończyk.flac Size: 50692817 Hash: F12EEE3CF7DB428FACF76113CFF2D3FA Accuracy: -m0 Conclusion: CDDA 100% Signature: 3DE0418906B6304CACC016DCD92C66FA317608D8FILE: 07. Alien.flac Size: 31305280 Hash: 96088B12060EF681A7069913BA67C0A3 Accuracy: -m0 Conclusion: CDDA 100% Signature: 13FF8AFCEDF1D02516933030C2B5B9D09CC7975DFILE: 06. 51.flac Size: 36809268 Hash: F46E345C3CDDB552BF3D02A556641657 Accuracy: -m0 Conclusion: CDDA 100% Signature: 9CFF0F1D7C9F956DF37986A4EC871761BB9A28D0FILE: 05. Wpadka.flac Size: 24851978 Hash: 23962BB570705E2ADE4528F23AAF3239 Accuracy: -m0 Conclusion: CDDA 100% Signature: 4C606624CA03EEE3BF091572FFC3814EF863B6F1FILE: 04. Trzy zapałki.flac Size: 29285443 Hash: 5456D14CF989CFC5C12524F432A544DC Accuracy: -m0 Conclusion: CDDA 100% Signature: 083C538F21691C1A8EA42F1420C481B3F6811AA7FILE: 03. Chodzą ludzie.flac Size: 28420435 Hash: 67DFA6AD5D0004275DE0C30678EBAFE5 Accuracy: -m0 Conclusion: CDDA 100% Signature: 4CB234E078F11003E7A49FD7D8FA86A2D2E6B39EFILE: 02. Plan życia.flac Size: 28053642 Hash: 9DB63780F635E847C0C663C8B919F24E Accuracy: -m0 Conclusion: CDDA 100% Signature: C855DDF5B37277CEA6E148AE4294D0B956D9CE9CFILE: 01. Zapowiedź.flac Size: 12906682 Hash: DB0A67499294443C95B4BFB2E6E490C9 Accuracy: -m0 Conclusion: CDDA 100% Signature: 7184CDFE6071F48624FE4B08AF7520650FB1B3EE
Duane Cleveland – perkusja
Paweł Mąciwoda – gitara basowa
Andrzej Nowak – gitara
Marek Piekarczyk – śpiew


Трекер:  [ 10-Дек-2012 06:31 ]

  

Скачать .torrent

Размер .torrent файла 17 KB


Размер: 413 MB
Хэш (hash) релиза: a019b4aee71b354fa4a5c6517a961d7bd437a5b1

Еще никто не оставлял запись к записи скачать торрент TSA - TSA w Trójce. Koncert akustyczny - 1999, FLAC . Будь первым!

!Обратная связь