Скачать через торрент музыку Jack Scott - The Way I Wallk бесплатно без регистрации torrent

Если у вас наблюдаются проблемы со скриншотами, переходом по ссылками, скачиванием торрентов - проблемы в блокировщике рекламы AdBlock. #хорошегоДня!


Статистика раздачи
Размер:  244 MB   |    Зарегистрирован:  4 года 11 месяцев   |    .torrent скачан:  4 раза   |   
Раздают:  1  
   
Загрузка...
 
Автор Сообщение

Galfimbul

avatar Galfimbul


Jack Scott / The Way I Wallk

Жанр: Rockabilly
Страна-производитель диска: UK
Год издания: 1990
Издатель (лейбл): Roller Coaster Records
Номер по каталогу: RCCD 3002
Страна: USA
Аудиокодек: FLAC (*.flac)
Тип рипа: image+.cue
Битрейт аудио: lossless
Продолжительность: 69:00
Источник (релизер): AUDELAS KINGDOM
Наличие сканов в содержимом раздачи: да

01. Leroy
02. Midgie
03. The Way I Walk
04. Goodbye Baby
05. Go Wild Little Sadie
06. Geraldine
07. Save My Soul
08. Baby She's Gone
09. Two-Timin' Woman
10. I Never Felt Like This
11. Geraldine
12. My True Love
13. I'm Dreaming Of You
14. With Your Love
15. I Can't Help It
16. No One Will Ever Know
17. Indiana Waltz
18. Baby Marie
19. Bella
20. There Comes A Time
21. I Need Your Love
22. You Can Bet Your Bottom Dollar
23. What Am I Living For
24. There's Trouble Brewing
25. Lonesome Mary
26. Greaseball
Exact Audio Copy V1.0 beta 2 from 29. April 2011

Отчёт EAC об извлечении, выполненном 6. декабря 2012, 19:42

Jack Scott / The Way I Wallk

Дисковод: ATAPI iHAS124 B Adapter: 1 ID: 1

Режим чтения : ДостоверностьИспользование точного потока : ДаОтключение кэша аудио : ДаИспользование указателей C2 : Нет

Коррекция смещения при чтении : 6Способность читать области Lead-in и Lead-out : НетЗаполнение пропущенных сэмплов тишиной : ДаУдаление блоков с тишиной в начале и конце : НетПри вычислениях CRC использовались нулевые сэмплы : ДаИнтерфейс : Встроенный Win32-интерфейс для Win NT/2000

Выходной формат : Пользовательский кодировщикВыбранный битрейт : 1024 kBit/sКачество : ВысокийДобавление ID3-тега : НетУтилита сжатия : C:\Program Files\Exact Audio Copy\FLAC\FLAC.EXEДополнительные параметры : -6 -V -T "ARTIST=%artist%" -T "TITLE=%title%" -T "ALBUM=%albumtitle%" -T "DATE=%year%" -T "TRACKNUMBER=%tracknr%" -T "GENRE=%genre%" -T "COMMENT=%comment%" -T "BAND=%albuminterpret%" -T "COMPOSER=%composer%" %haslyrics%--tag-from-

TOC извлечённого CD

Трек | Старт | Длительность | Начальный сектор | Конечный сектор --------------------------------------------------------------------- 1 | 0:00.33 | 2:10.22 | 33 | 9804 2 | 2:10.55 | 2:16.15 | 9805 | 20019 3 | 4:26.70 | 2:43.38 | 20020 | 32282 4 | 7:10.33 | 2:11.00 | 32283 | 42107 5 | 9:21.33 | 2:35.10 | 42108 | 53742 6 | 11:56.43 | 2:05.15 | 53743 | 63132 7 | 14:01.58 | 1:53.25 | 63133 | 71632 8 | 15:55.08 | 2:49.65 | 71633 | 84372 9 | 18:44.73 | 2:00.00 | 84373 | 93372 10 | 20:44.73 | 1:53.02 | 93373 | 101849 11 | 22:38.00 | 2:03.08 | 101850 | 111082 12 | 24:41.08 | 2:47.22 | 111083 | 123629 13 | 27:28.30 | 2:09.48 | 123630 | 133352 14 | 29:38.03 | 2:04.47 | 133353 | 142699 15 | 31:42.50 | 2:41.35 | 142700 | 154809 16 | 34:24.10 | 2:50.73 | 154810 | 167632 17 | 37:15.08 | 1:59.55 | 167633 | 176612 18 | 39:14.63 | 2:02.65 | 176613 | 185827 19 | 41:17.53 | 2:08.12 | 185828 | 195439 20 | 43:25.65 | 2:23.63 | 195440 | 206227 21 | 45:49.53 | 2:17.60 | 206228 | 216562 22 | 48:07.38 | 2:50.12 | 216563 | 229324 23 | 50:57.50 | 2:20.38 | 229325 | 239862 24 | 53:18.13 | 2:42.30 | 239863 | 252042 25 | 56:00.43 | 2:14.45 | 252043 | 262137 26 | 58:15.13 | 2:09.72 | 262138 | 271884

Характеристики диапазона извлечения и сообщения об ошибках

Выбранный диапазон

Имя файла D:\Muzika\Jack Scott - The Way I Walk (1990)\Jack Scott - The Way I Wallk.wav

Пиковый уровень 99.9 % Скорость извлечения 7.8 X Качество диапазона 99.9 % CRC теста 9DC8C384 CRC копии 9DC8C384 Копирование... OK

Ошибок не произошло

AccurateRip: сводка

Трек 1 : извлечено точно (доверие 1) [43E927EC] (AR v2)Трек 2 : извлечено точно (доверие 1) [8B7C3069] (AR v2)Трек 3 : извлечено точно (доверие 1) [2013C9C1] (AR v2)Трек 4 : извлечено точно (доверие 1) [CA16C33A] (AR v2)Трек 5 : извлечено точно (доверие 1) [B6AD67E9] (AR v2)Трек 6 : извлечено точно (доверие 1) [D3431AD7] (AR v2)Трек 7 : извлечено точно (доверие 1) [ABC79668] (AR v2)Трек 8 : извлечено точно (доверие 1) [0664C7EB] (AR v2)Трек 9 : извлечено точно (доверие 1) [2FE4337E] (AR v2)Трек 10 : извлечено точно (доверие 1) [AE8850C0] (AR v2)Трек 11 : извлечено точно (доверие 1) [D5621780] (AR v2)Трек 12 : извлечено точно (доверие 1) [182F0ABA] (AR v2)Трек 13 : извлечено точно (доверие 1) [3C3AD04D] (AR v2)Трек 14 : извлечено точно (доверие 1) [46CBCDC0] (AR v2)Трек 15 : извлечено точно (доверие 1) [DE619391] (AR v2)Трек 16 : извлечено точно (доверие 1) [1C75533D] (AR v2)Трек 17 : извлечено точно (доверие 1) [D90C9646] (AR v2)Трек 18 : извлечено точно (доверие 1) [93483866] (AR v2)Трек 19 : извлечено точно (доверие 1) [63ABA400] (AR v2)Трек 20 : извлечено точно (доверие 1) [D6CC8830] (AR v2)Трек 21 точность не определена (достоверность 1) [0DC6BBB3], AccurateRip вернул [88F8A1A7] (AR v2)Трек 22 : извлечено точно (доверие 1) [47063BF4] (AR v2)Трек 23 : извлечено точно (доверие 1) [675446C8] (AR v2)Трек 24 : извлечено точно (доверие 1) [59C1DB62] (AR v2)Трек 25 : извлечено точно (доверие 1) [53AC2F56] (AR v2)Трек 26 : извлечено точно (доверие 1) [486E692A] (AR v2)

25 трек(и) скопированы точно 1 трек(и) не удалось проверить на точность

Некоторые треки не прошли проверку на точность

Конец отчёта

==== Контрольная сумма отчёта 9EE7FF97BA8ABC4153143ED480FD4865D7B956FA151A6303AC3D3174DE7E714F ====


Трекер:  [ 10-Дек-2012 06:31 ]

  

Скачать .torrent

Размер .torrent файла 20 KB


Размер: 244 MB
Хэш (hash) релиза: 9a60d30e626076dc4453cc487f6a7a06044cc130

Еще никто не оставлял запись к записи скачать торрент Jack Scott - The Way I Wallk . Будь первым!

!Обратная связь