Скачать через торрент музыку Jack Hammer - Twist Collection - 2001, APE бесплатно без регистрации torrent

Если у вас наблюдаются проблемы со скриншотами, переходом по ссылками, скачиванием торрентов - проблемы в блокировщике рекламы AdBlock. #хорошегоДня!


Статистика раздачи
Размер:  439 MB   |    Зарегистрирован:  4 года 8 месяцев   |    .torrent скачан:  32 раза   |   
Раздают:  1  
   
Загрузка...
 
Автор Сообщение

Galfimbul

avatar Galfimbul


Jack Hammer - Twist Collection

Жанр: Rock'n'Roll / Twist
Год выпуска диска: 2001
Производитель диска: Россия
Аудио кодек: APE
Тип рипа: image+.cue
Битрейт аудио: lossless
Продолжительность: 71'54"
Трэклист:
1. Twist In The Morning 2:25
2. Kissin' Twist 2:23
3. Don't Let Baby Know 2:25
4. Girl-Girl-Girl 1:53
5. Boogie Woogie Twist 2:21
6. Twist & Shout 1:52
7. Spellin Twist 1:53
8. Twist Talk 2:47
9. Crazy Twist 2:05
10. Twistin King 2:24
11. Choo-Choo Twist 1:44
12. Twist, Turn And Twirl 2:12
13. Come Twist Around The Clock 2:11
14. Twistin Blues 2:18
15. The Wiggle 2:40
16. Wiggling Fool 1:41
17. Can't You Do It 2:07
18. Sugar Boy 2:23
19. Electricity 2:57
20. Fire Baby 2:30
21. It's Good 2:00
22. Juliette 2:48
23. Melancholy Baby 2:35
24. Stop Slop 3:54
25. Espana Te Quiere 3:07
26. All Ben Ghazi 2:32
27. The Hawks And The Crowns 2:13
28. Ruby Red (Dying Soldier) 2:42
29. The Rose is The Rock 2:37
30. Mean And Evil Me 2:15
Exact Audio Copy V0.99 prebeta 4 from 23. January 2008

EAC extraction logfile from 7. March 2009, 10:12

Jack Hammer / Twist Collection

Used drive : Optiarc DVD RW AD-5200S Adapter: 2 ID: 0

Read mode : Secure
Utilize accurate stream : Yes
Defeat audio cache : Yes
Make use of C2 pointers : No

Read offset correction : 48
Overread into Lead-In and Lead-Out : No
Fill up missing offset samples with silence : Yes
Delete leading and trailing silent blocks : No
Null samples used in CRC calculations : No
Used interface : Native Win32 interface for Win NT & 2000

Used output format : Internal WAV Routines
Sample format : 44.100 Hz; 16 Bit; Stereo

TOC of the extracted CD

Track | Start | Length | Start sector | End sector
---------------------------------------------------------
1 | 0:00.00 | 2:25.52 | 0 | 10926
2 | 2:25.52 | 2:23.05 | 10927 | 21656
3 | 4:48.57 | 2:25.67 | 21657 | 32598
4 | 7:14.49 | 1:53.25 | 32599 | 41098
5 | 9:07.74 | 2:21.23 | 41099 | 51696
6 | 11:29.22 | 1:52.05 | 51697 | 60101
7 | 13:21.27 | 1:53.18 | 60102 | 68594
8 | 15:14.45 | 2:47.39 | 68595 | 81158
9 | 18:02.09 | 2:05.16 | 81159 | 90549
10 | 20:07.25 | 2:24.67 | 90550 | 101416
11 | 22:32.17 | 1:44.63 | 101417 | 109279
12 | 24:17.05 | 2:12.40 | 109280 | 119219
13 | 26:29.45 | 2:11.37 | 119220 | 129081
14 | 28:41.07 | 2:18.12 | 129082 | 139443
15 | 30:59.19 | 2:40.20 | 139444 | 151463
16 | 33:39.39 | 1:41.23 | 151464 | 159061
17 | 35:20.62 | 2:07.05 | 159062 | 168591
18 | 37:27.67 | 2:23.53 | 168592 | 179369
19 | 39:51.45 | 2:57.02 | 179370 | 192646
20 | 42:48.47 | 2:30.57 | 192647 | 203953
21 | 45:19.29 | 2:00.68 | 203954 | 213021
22 | 47:20.22 | 2:48.50 | 213022 | 225671
23 | 50:08.72 | 2:35.48 | 225672 | 237344
24 | 52:44.45 | 3:54.17 | 237345 | 254911
25 | 56:38.62 | 3:07.20 | 254912 | 268956
26 | 59:46.07 | 2:32.57 | 268957 | 280413
27 | 62:18.64 | 2:13.23 | 280414 | 290411
28 | 64:32.12 | 2:42.15 | 290412 | 302576
29 | 67:14.27 | 2:37.47 | 302577 | 314398
30 | 69:51.74 | 2:15.68 | 314399 | 324591

Range status and errors

Selected range

Filename E:\FlacTemp\Jack Hammer - Twist Collection.wav

Peak level 99.2 %
Range quality 100.0 %
Copy CRC 9B8E68DB
Copy OK

No errors occurred

End of status report
Доп. информация: Jack Hammer (не путать с одноименным южно-африканским ансамблем) был особо популярен в Европе на пике твистового помешательства в 1962г и записывался на фирме RONNEX в Бельгии с оркестром Джонни ван Хорна. Однако до сих пор трудно что-либо найти касательно его биографии или приличное фото, включая сканшоты обложек его альбомов.
По удивительной случайности в 2001г в России был переиздан этот альбом, первоначально выпущенный в 1997г в Бельгии (MARGINAL CDMAR 056).
К весьма скудному набору сканшотов обложки диска прилагается обложка голландского ЕР винила, который поможет хоть как-то разнообразить оформление.

Трекер:  [ 10-Дек-2012 06:31 ]

  

Скачать .torrent

Размер .torrent файла 18 KB


Размер: 439 MB
Хэш (hash) релиза: a096ca83e6de002ea45f6b4046bbfaa90d94eabe

Еще никто не оставлял запись к записи скачать торрент Jack Hammer - Twist Collection - 2001, APE . Будь первым!

!Обратная связь