Скачать через торрент музыку Tift Merritt - Studio Discography - 2002-2012, FLAC бесплатно без регистрации torrent

Если у вас наблюдаются проблемы со скриншотами, переходом по ссылками, скачиванием торрентов - проблемы в блокировщике рекламы AdBlock. #хорошегоДня!


Статистика раздачи
Размер:  1.43 GB   |    Зарегистрирован:  4 года 11 месяцев   |    .torrent скачан:  36 раз   |   
Раздают:  1  
   
Загрузка...
 
Автор Сообщение

Galfimbul

avatar Galfimbul


Tift Merritt / Studio Discography

Жанр: Folk, Alternative Country, Americana, Pop Rock, Singer-Songwriter
Страна-производитель диска: USA/EU
Год издания: 2002-2012
Издатель (лейбл): Lost Highway, Universal Distribution, Concord Music, Fantasy Records, Yep Roc
Номер по каталогу: 170 273 2 /B0002520-02 /FCD-30455 /FAN-31965-02/
Страна: USA
Аудиокодек: FLAC (*.flac), APE (*.ape)
Тип рипа: FLAC (tracks+.cue,.log), APE (image+.cue+.log)
Битрейт аудио: lossless
Продолжительность: 3:48:32
Источник (релизер): nfyz5
Наличие сканов в содержимом раздачи: да
01. Tift Merritt - Trouble Over Me (5:09)
02. Tift Merritt - Virginia. No One Can Warn You (4:25)
03. Tift Merritt - Neighborhood (3:20)
04. Tift Merritt - Bird Of Freedom (4:08)
05. Tift Merritt - Bramble Rose (4:30)
06. Tift Merritt - I Know Him Too (3:53)
07. Tift Merritt - Sunday (6:11)
08. Tift Merritt - Supposed To Make You Happy (4:20)
09. Tift Merritt - Diamond Shoes (4:48)
10. Tift Merritt - Are You Still In Love With Me? (5:22)
11. Tift Merritt - When I Cross Over (6:33)
01. Tift Merritt - Stray Paper (3:55)
02. Tift Merritt - Wait It Out (3:40)
03. Tift Merritt - Good Hearted Man (3:39)
04. Tift Merritt - Ain't Looking Closely (4:24)
05. Tift Merritt - Still Pretending (3:43)
06. Tift Merritt - Write My Ticket (3:43)
07. Tift Merritt - Your Love Made A U-Turn (2:34)
08. Tift Merritt - Plainest Thing (3:33)
09. Tift Merritt - Late Night Pilgrim (4:25)
10. Tift Merritt - I Am Your Tambourine (3:44)
11. Tift Merritt - Laid A Highway (3:54)
12. Tift Merritt - Shadow In The Way (4:46)
01. Tift Merritt - Something To Me (4:09)
02. Tift Merritt - Broken (3:44)
03. Tift Merritt - Another Country (4:43)
04. Tift Merritt - Hopes Too High (3:33)
05. Tift Merritt - Morning Is My Destination (3:18)
06. Tift Merritt - Keep You Happy (5:06)
07. Tift Merritt - I Know What I'm Looking For Now (3:58)
08. Tift Merritt - Tell Me Something True (3:01)
09. Tift Merritt - My Heart Is Free (3:29)
10. Tift Merritt - Tender Branch (3:31)
11. Tift Merritt - Mille Tendresses (3:11)
01. Tift Merritt - Mixtape (3:19)
02. Tift Merritt - Engine To Turn (2:52)
03. Tift Merritt - The Things That Everybody Does (3:06)
04. Tift Merritt - Six More Days Of Rain (2:47)
05. Tift Merritt - Feel Of The World (4:45)
06. Tift Merritt - Never Talk About It (4:49)
07. Tift Merritt - All The Reasons We Don't Have To Fight (4:39)
08. Tift Merritt - Live Till You Die (2:44)
09. Tift Merritt - Papercut (2:52)
10. Tift Merritt - See You On The Moon (4:34)
11. Tift Merritt - Danny's Song (2:11)
12. Tift Merritt - After Today (4:32)
01. Tift Merritt - Traveling Alone (4:47)
02. Tift Merritt - Sweet Spot (2:53)
03. Tift Merritt - Drifted Apart (3:37)
04. Tift Merritt - Still Not Home (3:51)
05. Tift Merritt - Feeling Of Beauty (4:04)
06. Tift Merritt - Too Soon To Go (4:37)
07. Tift Merritt - Small Talk Relations (3:25)
08. Tift Merritt - Spring (4:24)
09. Tift Merritt - To Myself (3:36)
10. Tift Merritt - In The Way (3:37)
11. Tift Merritt - Marks (5:45)
Exact Audio Copy V0.99 prebeta 4 from 23. January 2008

EAC extraction logfile from 7. March 2009, 3:56

Tift Merritt / Bramble Rose

Used drive : TSSTcorpCDDVDW TS-H653N Adapter: 2 ID: 2

Read mode : Secure
Utilize accurate stream : Yes
Defeat audio cache : Yes
Make use of C2 pointers : No

Read offset correction : 6
Overread into Lead-In and Lead-Out : No
Fill up missing offset samples with silence : Yes
Delete leading and trailing silent blocks : No
Null samples used in CRC calculations : Yes
Used interface : Installed external ASPI interface
Gap handling : Appended to previous track

Used output format : User Defined Encoder
Selected bitrate : 320 kBit/s
Quality : High
Add ID3 tag : No
Command line compressor : C:\Program Files\Exact Audio Copy\FLAC\FLAC.EXE
Additional command line options : -V -8 -T "artist=%a" -T "title=%t" -T "album=%g" -T "date=%y" -T "tracknumber=%n" -T "genre=%m" %s

TOC of the extracted CD

Track | Start | Length | Start sector | End sector
---------------------------------------------------------
1 | 0:00.00 | 5:08.67 | 0 | 23166
2 | 5:08.67 | 4:25.08 | 23167 | 43049
3 | 9:34.00 | 3:20.00 | 43050 | 58049
4 | 12:54.00 | 4:08.02 | 58050 | 76651
5 | 17:02.02 | 4:30.25 | 76652 | 96926
6 | 21:32.27 | 3:53.28 | 96927 | 114429
7 | 25:25.55 | 6:11.25 | 114430 | 142279
8 | 31:37.05 | 4:20.07 | 142280 | 161786
9 | 35:57.12 | 4:48.00 | 161787 | 183386
10 | 40:45.12 | 5:22.23 | 183387 | 207559
11 | 46:07.35 | 6:32.60 | 207560 | 237019

Track 1

Filename 01 - Trouble Over Me .wav

Pre-gap length 0:00:02.00

Peak level 100.0 %
Track quality 100.0 %
Test CRC 42BA05B6
Copy CRC 42BA05B6
Accurately ripped (confidence 18) [B26707A9]
Copy OK

Track 2

Filename 02 - Virginia, No One Can Warn You .wav

Pre-gap length 0:00:00.42

Peak level 100.0 %
Track quality 100.0 %
Test CRC A32EB8A0
Copy CRC A32EB8A0
Accurately ripped (confidence 18) [C3773B51]
Copy OK

Track 3

Filename 03 - Neighborhood .wav

Pre-gap length 0:00:02.00

Peak level 100.0 %
Track quality 100.0 %
Test CRC 35129642
Copy CRC 35129642
Accurately ripped (confidence 18) [EAF5858E]
Copy OK

Track 4

Filename 04 - Bird Of Freedom .wav

Pre-gap length 0:00:01.00

Peak level 100.0 %
Track quality 99.9 %
Test CRC 5E7063FC
Copy CRC 5E7063FC
Accurately ripped (confidence 18) [15B4694D]
Copy OK

Track 5

Filename 05 - Bramble Rose .wav

Pre-gap length 0:00:01.47

Peak level 100.0 %
Track quality 100.0 %
Test CRC 7CAE227F
Copy CRC 7CAE227F
Accurately ripped (confidence 18) [5E23A850]
Copy OK

Track 6

Filename 06 - I Know Him Too .wav

Peak level 100.0 %
Track quality 100.0 %
Test CRC 2BBDFFE8
Copy CRC 2BBDFFE8
Accurately ripped (confidence 18) [82995E0A]
Copy OK

Track 7

Filename 07 - Sunday .wav

Pre-gap length 0:00:02.05

Peak level 100.0 %
Track quality 100.0 %
Test CRC F3EEB1ED
Copy CRC F3EEB1ED
Accurately ripped (confidence 18) [0217C714]
Copy OK

Track 8

Filename 08 - Supposed To Make You Happy .wav

Pre-gap length 0:00:02.05

Peak level 100.0 %
Track quality 100.0 %
Test CRC 986855F1
Copy CRC 986855F1
Accurately ripped (confidence 18) [69A38B24]
Copy OK

Track 9

Filename 09 - Diamond Shoes .wav

Pre-gap length 0:00:00.12

Peak level 100.0 %
Track quality 100.0 %
Test CRC 12BB4311
Copy CRC 12BB4311
Accurately ripped (confidence 18) [E2D7686B]
Copy OK

Track 10

Filename 10 - Are You Still In Love With Me .wav

Pre-gap length 0:00:01.12

Peak level 100.0 %
Track quality 100.0 %
Test CRC CEB9730F
Copy CRC CEB9730F
Accurately ripped (confidence 18) [3C273435]
Copy OK

Track 11

Filename 11 - When I Cross Over .wav

Pre-gap length 0:00:02.35

Peak level 100.0 %
Track quality 100.0 %
Test CRC C5C8B092
Copy CRC C5C8B092
Accurately ripped (confidence 18) [6BE95A2F]
Copy OK

All tracks accurately ripped

No errors occurred

End of status report
Exact Audio Copy V0.99 prebeta 5 from 4. May 2009

EAC extraction logfile from 25. March 2010, 18:46

Tift Merritt / Tambourine

Used drive : HL-DT-STDVD-ROM GDR8162B Adapter: 0 ID: 0

Read mode : Secure
Utilize accurate stream : Yes
Defeat audio cache : Yes
Make use of C2 pointers : No

Read offset correction : 102
Overread into Lead-In and Lead-Out : No
Fill up missing offset samples with silence : Yes
Delete leading and trailing silent blocks : No
Null samples used in CRC calculations : Yes
Used interface : Native Win32 interface for Win NT & 2000
Gap handling : Appended to previous track

Used output format : User Defined Encoder
Selected bitrate : 192 kBit/s
Quality : High
Add ID3 tag : No
Command line compressor : D:\system\Exact Audio Copy\Flac\flac.exe
Additional command line options : -V -8 -T "artist=%a" -T "title=%t" -T "album=%g" -T "date=%y" -T "tracknumber=%n" -T "genre=%m" %s

TOC of the extracted CD

Track | Start | Length | Start sector | End sector
---------------------------------------------------------
1 | 0:00.00 | 3:55.08 | 0 | 17632
2 | 3:55.08 | 3:40.24 | 17633 | 34156
3 | 7:35.32 | 3:39.09 | 34157 | 50590
4 | 11:14.41 | 4:24.15 | 50591 | 70405
5 | 15:38.56 | 3:43.07 | 70406 | 87137
6 | 19:21.63 | 3:43.68 | 87138 | 103930
7 | 23:05.56 | 2:34.38 | 103931 | 115518
8 | 25:40.19 | 3:33.37 | 115519 | 131530
9 | 29:13.56 | 4:25.40 | 131531 | 151445
10 | 33:39.21 | 3:44.32 | 151446 | 168277
11 | 37:23.53 | 3:54.15 | 168278 | 185842
12 | 41:17.68 | 4:46.69 | 185843 | 207361

Track 1

Filename D:\wave dumps\Tift Merritt - Tambourine - 01 - Stray Paper.wav

Pre-gap length 0:00:02.00

Peak level 100.0 %
Track quality 99.9 %
Test CRC 6AFC3D20
Copy CRC 6AFC3D20
Accurately ripped (confidence 52) [BB2F6F9F]
Copy OK

Track 2

Filename D:\wave dumps\Tift Merritt - Tambourine - 02 - Wait It Out.wav

Pre-gap length 0:00:00.10

Peak level 100.0 %
Track quality 100.0 %
Test CRC 0DCAB3B7
Copy CRC 0DCAB3B7
Accurately ripped (confidence 52) [4A005025]
Copy OK

Track 3

Filename D:\wave dumps\Tift Merritt - Tambourine - 03 - Good Hearted Man.wav

Pre-gap length 0:00:00.20

Peak level 100.0 %
Track quality 100.0 %
Test CRC F65287AB
Copy CRC F65287AB
Accurately ripped (confidence 52) [84913606]
Copy OK

Track 4

Filename D:\wave dumps\Tift Merritt - Tambourine - 04 - Ain't Looking Closely.wav

Pre-gap length 0:00:00.12

Peak level 100.0 %
Track quality 100.0 %
Test CRC EEF53BAC
Copy CRC EEF53BAC
Accurately ripped (confidence 51) [57538506]
Copy OK

Track 5

Filename D:\wave dumps\Tift Merritt - Tambourine - 05 - Still Pretending.wav

Pre-gap length 0:00:00.16

Peak level 100.0 %
Track quality 100.0 %
Test CRC 3923597B
Copy CRC 3923597B
Accurately ripped (confidence 52) [A009C78E]
Copy OK

Track 6

Filename D:\wave dumps\Tift Merritt - Tambourine - 06 - Write My Ticket.wav

Pre-gap length 0:00:00.10

Peak level 100.0 %
Track quality 100.0 %
Test CRC 1E745FA9
Copy CRC 1E745FA9
Accurately ripped (confidence 52) [400AF6DC]
Copy OK

Track 7

Filename D:\wave dumps\Tift Merritt - Tambourine - 07 - Your Love Made A U-Turn.wav

Pre-gap length 0:00:00.17

Peak level 100.0 %
Track quality 100.0 %
Test CRC 17802A27
Copy CRC 17802A27
Accurately ripped (confidence 52) [92FBA2D8]
Copy OK

Track 8

Filename D:\wave dumps\Tift Merritt - Tambourine - 08 - Plainest Thing.wav

Pre-gap length 0:00:01.12

Peak level 100.0 %
Track quality 99.9 %
Test CRC E1BFA4D6
Copy CRC E1BFA4D6
Accurately ripped (confidence 52) [1D058FD2]
Copy OK

Track 9

Filename D:\wave dumps\Tift Merritt - Tambourine - 09 - Late Night Pilgrim.wav

Pre-gap length 0:00:01.98

Peak level 100.0 %
Track quality 100.0 %
Test CRC 10AFE948
Copy CRC 10AFE948
Accurately ripped (confidence 52) [4FC3FB9D]
Copy OK

Track 10

Filename D:\wave dumps\Tift Merritt - Tambourine - 10 - I Am Your Tambourine.wav

Pre-gap length 0:00:00.01

Peak level 100.0 %
Track quality 100.0 %
Test CRC EDA38725
Copy CRC EDA38725
Accurately ripped (confidence 53) [EFC18947]
Copy OK

Track 11

Filename D:\wave dumps\Tift Merritt - Tambourine - 11 - Laid A Highway.wav

Pre-gap length 0:00:00.42

Peak level 100.0 %
Track quality 100.0 %
Test CRC 62E34E3A
Copy CRC 62E34E3A
Accurately ripped (confidence 53) [149EF706]
Copy OK

Track 12

Filename D:\wave dumps\Tift Merritt - Tambourine - 12 - Shadow In The Way.wav

Pre-gap length 0:00:00.81

Peak level 100.0 %
Track quality 99.5 %
Test CRC 8655D8C1
Copy CRC 8655D8C1
Accurately ripped (confidence 53) [E5E4E7E5]
Copy OK

All tracks accurately ripped

No errors occurred

End of status report
Exact Audio Copy V0.99 prebeta 4 from 23. January 2008

Отчёт EAC об извлечении, выполненном 17. февраля 2009, 14:30

Tift Merritt / Another Country

Дисковод: HL-DT-STDVD-RAM GSA-H55N Adapter: 0 ID: 0

Режим чтения : Достоверность
Использование точного потока : Да
Отключение кэша аудио : Да
Использование указателей C2 : Нет

Коррекция смещения при чтении : 102
Способность читать области Lead-in и Lead-out : Нет
Заполнение пропущенных сэмплов тишиной : Да
Удаление блоков с тишиной в начале и конце : Нет
При вычислениях CRC использовались нулевые сэмплы : Да
Интерфейс : Встроенный Win32-интерфейс для Win NT/2000

Выходной формат : Внутренние WAV-операции
Формат сэмплов : 44.100 Гц; 16 бит; стерео

TOC извлечённого CD

Трек | Старт | Длительность | Начальный сектор | Конечный сектор
---------------------------------------------------------------------
1 | 0:00.00 | 4:11.32 | 0 | 18856
2 | 4:11.32 | 3:45.67 | 18857 | 35798
3 | 7:57.24 | 4:44.69 | 35799 | 57167
4 | 12:42.18 | 3:34.00 | 57168 | 73217
5 | 16:16.18 | 3:19.45 | 73218 | 88187
6 | 19:35.63 | 5:08.06 | 88188 | 111293
7 | 24:43.69 | 3:59.31 | 111294 | 129249
8 | 28:43.25 | 3:01.54 | 129250 | 142878
9 | 31:45.04 | 3:32.44 | 142879 | 158822
10 | 35:17.48 | 3:34.12 | 158823 | 174884
11 | 38:51.60 | 3:10.20 | 174885 | 189154

Характеристики диапазона извлечения и сообщения об ошибках

Выбранный диапазон

Имя файла D:\Tift Merritt\Tift Merritt - Another Country.wav

Пиковый уровень 99.9 %
Качество диапазона 99.9 %
CRC копии EDA92F53
Копирование... OK

Ошибок не произошло

AccurateRip: сводка

Трек 1 точное извлечение (доверие 21) [A4EE0236]
Трек 2 точное извлечение (доверие 21) [497FE179]
Трек 3 точное извлечение (доверие 21) [9ED53592]
Трек 4 точное извлечение (доверие 21) [C5AB9FE9]
Трек 5 точное извлечение (доверие 21) [FD3FCE6D]
Трек 6 точное извлечение (доверие 21) [8A658107]
Трек 7 точное извлечение (доверие 21) [98E9556C]
Трек 8 точное извлечение (доверие 21) [81B8EE43]
Трек 9 точное извлечение (доверие 21) [84666D00]
Трек 10 точное извлечение (доверие 21) [16FB8CF3]
Трек 11 точное извлечение (доверие 21) [7F1E4B66]

Все треки извлечены точно

Конец отчёта
Exact Audio Copy V0.99 prebeta 5 from 4. May 2009

EAC extraction logfile from 19. July 2010, 16:29

Tift Merritt / See You on the Moon

Used drive : TSSTcorpCDDVDW SH-S222 Adapter: 2 ID: 0

Read mode : Secure
Utilize accurate stream : Yes
Defeat audio cache : Yes
Make use of C2 pointers : No

Read offset correction : 6
Overread into Lead-In and Lead-Out : No
Fill up missing offset samples with silence : Yes
Delete leading and trailing silent blocks : No
Null samples used in CRC calculations : Yes
Used interface : Native Win32 interface for Win NT & 2000
Gap handling : Appended to previous track

Used output format : User Defined Encoder
Selected bitrate : 128 kBit/s
Quality : High
Add ID3 tag : No
Command line compressor : C:\Program Files\Exact Audio Copy\FLAC\FLAC.EXE
Additional command line options : -V -5 -T "artist=%a" -T "title=%t" -T "album=%g" -T "date=%y" -T "tracknumber=%n" -T "genre=%m" %s

TOC of the extracted CD

Track | Start | Length | Start sector | End sector
---------------------------------------------------------
1 | 0:00.00 | 3:18.72 | 0 | 14921
2 | 3:18.72 | 2:51.47 | 14922 | 27793
3 | 6:10.44 | 3:05.66 | 27794 | 41734
4 | 9:16.35 | 2:47.61 | 41735 | 54320
5 | 12:04.21 | 4:44.65 | 54321 | 75685
6 | 16:49.11 | 4:47.30 | 75686 | 97240
7 | 21:36.41 | 4:40.36 | 97241 | 118276
8 | 26:17.02 | 2:42.56 | 118277 | 130482
9 | 28:59.58 | 2:53.70 | 130483 | 143527
10 | 31:53.53 | 4:33.04 | 143528 | 164006
11 | 36:26.57 | 2:12.72 | 164007 | 173978
12 | 38:39.54 | 4:28.37 | 173979 | 194115

Track 1

Filename D:\Tift Merritt\See You on the Moon - 2010\01 - Mixtape.wav

Pre-gap length 0:00:02.00

Peak level 98.8 %
Track quality 100.0 %
Test CRC 23FC4798
Copy CRC 23FC4798
Track not present in AccurateRip database
Copy OK

Track 2

Filename D:\Tift Merritt\See You on the Moon - 2010\02 - Engine To Turn.wav

Peak level 98.8 %
Track quality 100.0 %
Test CRC 47CB436D
Copy CRC 47CB436D
Track not present in AccurateRip database
Copy OK

Track 3

Filename D:\Tift Merritt\See You on the Moon - 2010\03 - The Things That Everybody Does.wav

Peak level 95.4 %
Track quality 100.0 %
Test CRC A91C6008
Copy CRC A91C6008
Track not present in AccurateRip database
Copy OK

Track 4

Filename D:\Tift Merritt\See You on the Moon - 2010\04 - Six More Days Of Rain.wav

Peak level 96.1 %
Track quality 100.0 %
Test CRC 9E55024B
Copy CRC 9E55024B
Track not present in AccurateRip database
Copy OK

Track 5

Filename D:\Tift Merritt\See You on the Moon - 2010\05 - Feel Of The World.wav

Pre-gap length 0:00:01:02

Peak level 97.9 %
Track quality 100.0 %
Test CRC D1D51427
Copy CRC D1D51427
Track not present in AccurateRip database
Copy OK

Track 6

Filename D:\Tift Merritt\See You on the Moon - 2010\06 - Never Talk About It.wav

Pre-gap length 0:00:01:24

Peak level 97.7 %
Track quality 100.0 %
Test CRC F736392C
Copy CRC F736392C
Track not present in AccurateRip database
Copy OK

Track 7

Filename D:\Tift Merritt\See You on the Moon - 2010\07 - All The Reasons We Don't Have To Fight.wav

Peak level 96.6 %
Track quality 100.0 %
Test CRC 1DAC0802
Copy CRC 1DAC0802
Track not present in AccurateRip database
Copy OK

Track 8

Filename D:\Tift Merritt\See You on the Moon - 2010\08 - Live Till You Die.wav

Pre-gap length 0:00:01:26

Peak level 94.4 %
Track quality 100.0 %
Test CRC B9948981
Copy CRC B9948981
Track not present in AccurateRip database
Copy OK

Track 9

Filename D:\Tift Merritt\See You on the Moon - 2010\09 - Papercut.wav

Peak level 97.7 %
Track quality 100.0 %
Test CRC 32107438
Copy CRC 32107438
Track not present in AccurateRip database
Copy OK

Track 10

Filename D:\Tift Merritt\See You on the Moon - 2010\10 - See You On The Moon.wav

Pre-gap length 0:00:02:07

Peak level 97.7 %
Track quality 100.0 %
Test CRC 1325672A
Copy CRC 1325672A
Track not present in AccurateRip database
Copy OK

Track 11

Filename D:\Tift Merritt\See You on the Moon - 2010\11 - Danny's Song.wav

Pre-gap length 0:00:01:00

Peak level 97.9 %
Track quality 100.0 %
Test CRC CC853E34
Copy CRC CC853E34
Track not present in AccurateRip database
Copy OK

Track 12

Filename D:\Tift Merritt\See You on the Moon - 2010\12 - After Today.wav

Pre-gap length 0:00:03:17

Peak level 98.6 %
Track quality 100.0 %
Test CRC 6435BE6B
Copy CRC 6435BE6B
Track not present in AccurateRip database
Copy OK

None of the tracks are present in the AccurateRip database

No errors occurred

End of status report
Exact Audio Copy V1.0 beta 3 from 29. August 2011

EAC extraction logfile from 22. October 2012, 8:50

Tift Merritt / Traveling Alone

Used drive : TSSTcorpCDDVDW SH-216AB Adapter: 0 ID: 0

Read mode : Secure
Utilize accurate stream : Yes
Defeat audio cache : Yes
Make use of C2 pointers : No

Read offset correction : 6
Overread into Lead-In and Lead-Out : No
Fill up missing offset samples with silence : Yes
Delete leading and trailing silent blocks : No
Null samples used in CRC calculations : Yes
Used interface : Native Win32 interface for Win NT & 2000
Gap handling : Appended to previous track

Used output format : User Defined Encoder
Selected bitrate : 1024 kBit/s
Quality : High
Add ID3 tag : No
Command line compressor : C:\Program Files (x86)\Exact Audio Copy\Flac\flac.exe
Additional command line options : -8 -V -T "ARTIST=%artist%" -T "TITLE=%title%" -T "ALBUM=%albumtitle%" -T "DATE=%year%" -T "TRACKNUMBER=%tracknr%" -T "GENRE=%genre%" -T "PERFORMER=%albuminterpret%" -T "COMPOSER=%composer%" %haslyrics%--tag-from-file=LYRICS="%lyricsfile%"%haslyrics% -T "ALBUMARTIST=%albumartist%" -T "DISCNUMBER=%cdnumber%" -T "TOTALDISCS=%totalcds%" -T "TOTALTRACKS=%numtracks%" -T "COMMENT=%comment%" %source% -o %dest%

TOC of the extracted CD

Track | Start | Length | Start sector | End sector
---------------------------------------------------------
1 | 0:00.00 | 4:46.72 | 0 | 21521
2 | 4:46.72 | 2:52.49 | 21522 | 34470
3 | 7:39.46 | 3:36.57 | 34471 | 50727
4 | 11:16.28 | 3:50.69 | 50728 | 68046
5 | 15:07.22 | 4:03.57 | 68047 | 86328
6 | 19:11.04 | 4:37.09 | 86329 | 107112
7 | 23:48.13 | 3:25.13 | 107113 | 122500
8 | 27:13.26 | 4:23.67 | 122501 | 142292
9 | 31:37.18 | 3:36.08 | 142293 | 158500
10 | 35:13.26 | 3:37.35 | 158501 | 174810
11 | 38:50.61 | 5:44.63 | 174811 | 200673

Track 1

Filename K:\Tift Merritt - Traveling Alone\01 Traveling Alone.wav

Pre-gap length 0:00:02.00

Peak level 100.0 %
Extraction speed 4.8 X
Track quality 100.0 %
Test CRC A2BFD8E2
Copy CRC A2BFD8E2
Track not present in AccurateRip database
Copy OK

Track 2

Filename K:\Tift Merritt - Traveling Alone\02 Sweet Spot.wav

Pre-gap length 0:00:02.00

Peak level 99.8 %
Extraction speed 3.7 X
Track quality 99.9 %
Test CRC 28FC64DA
Copy CRC 28FC64DA
Track not present in AccurateRip database
Copy OK

Track 3

Filename K:\Tift Merritt - Traveling Alone\03 Drifted Apart.wav

Pre-gap length 0:00:02.00

Peak level 99.1 %
Extraction speed 4.3 X
Track quality 99.9 %
Test CRC C36CD9E2
Copy CRC C36CD9E2
Track not present in AccurateRip database
Copy OK

Track 4

Filename K:\Tift Merritt - Traveling Alone\04 Still Not Home.wav

Pre-gap length 0:00:02.00

Peak level 99.7 %
Extraction speed 5.8 X
Track quality 100.0 %
Test CRC 8A165F6F
Copy CRC 8A165F6F
Track not present in AccurateRip database
Copy OK

Track 5

Filename K:\Tift Merritt - Traveling Alone\05 Feeling Of Beauty.wav

Pre-gap length 0:00:02.00

Peak level 96.7 %
Extraction speed 5.7 X
Track quality 100.0 %
Test CRC 578D08E6
Copy CRC 578D08E6
Track not present in AccurateRip database
Copy OK

Track 6

Filename K:\Tift Merritt - Traveling Alone\06 Too Soon To Go.wav

Pre-gap length 0:00:02.00

Peak level 97.5 %
Extraction speed 5.3 X
Track quality 100.0 %
Test CRC 1C6AA284
Copy CRC 1C6AA284
Track not present in AccurateRip database
Copy OK

Track 7

Filename K:\Tift Merritt - Traveling Alone\07 Small Talk Relations.wav

Pre-gap length 0:00:02.00

Peak level 99.7 %
Extraction speed 4.0 X
Track quality 99.9 %
Test CRC 7B4B1A86
Copy CRC 7B4B1A86
Track not present in AccurateRip database
Copy OK

Track 8

Filename K:\Tift Merritt - Traveling Alone\08 Spring.wav

Pre-gap length 0:00:02.00

Peak level 99.3 %
Extraction speed 5.7 X
Track quality 100.0 %
Test CRC 23D601FA
Copy CRC 23D601FA
Track not present in AccurateRip database
Copy OK

Track 9

Filename K:\Tift Merritt - Traveling Alone\09 To Myself.wav

Pre-gap length 0:00:02.00

Peak level 99.5 %
Extraction speed 4.5 X
Track quality 99.9 %
Test CRC B5723607
Copy CRC B5723607
Track not present in AccurateRip database
Copy OK

Track 10

Filename K:\Tift Merritt - Traveling Alone\10 In The Way.wav

Pre-gap length 0:00:02.00

Peak level 99.0 %
Extraction speed 4.6 X
Track quality 99.9 %
Test CRC B87CB72C
Copy CRC B87CB72C
Track not present in AccurateRip database
Copy OK

Track 11

Filename K:\Tift Merritt - Traveling Alone\11 Marks.wav

Pre-gap length 0:00:02.00

Peak level 99.9 %
Extraction speed 6.6 X
Track quality 100.0 %
Test CRC 4886285A
Copy CRC 4886285A
Track not present in AccurateRip database
Copy OK

None of the tracks are present in the AccurateRip database

No errors occurred

End of status report

---- CUETools DB Plugin V2.1.3

[CTDB TOCID: O4y1.JYzaV_alAMYBvH7rLDc2QU-] disk not present in database, Submit result: O4y1.JYzaV_alAMYBvH7rLDc2QU- has been uploaded

==== Log checksum BD0A522432EE13F5A1688D91A9BEB1BC639C520874BA10FAC169CAE221FDC8FF ====
REM GENRE Country
REM DATE 2002
REM DISCID A70C580B
REM COMMENT "ExactAudioCopy v0.99pb4"
PERFORMER "Tift Merritt"
TITLE "Bramble Rose"
FILE "01 - Trouble Over Me.flac" WAVE
TRACK 01 AUDIO
TITLE "Trouble Over Me"
PERFORMER "Tift Merritt"
INDEX 01 00:00:00
TRACK 02 AUDIO
TITLE "Virginia, No One Can Warn You"
PERFORMER "Tift Merritt"
INDEX 00 05:08:25
FILE "02 - Virginia, No One Can Warn You.flac" WAVE
INDEX 01 00:00:00
TRACK 03 AUDIO
TITLE "Neighborhood"
PERFORMER "Tift Merritt"
INDEX 00 04:23:08
FILE "03 - Neighborhood.flac" WAVE
INDEX 01 00:00:00
TRACK 04 AUDIO
TITLE "Bird Of Freedom"
PERFORMER "Tift Merritt"
INDEX 00 03:19:00
FILE "04 - Bird Of Freedom.flac" WAVE
INDEX 01 00:00:00
TRACK 05 AUDIO
TITLE "Bramble Rose"
PERFORMER "Tift Merritt"
INDEX 00 04:06:30
FILE "05 - Bramble Rose.flac" WAVE
INDEX 01 00:00:00
FILE "06 - I Know Him Too.flac" WAVE
TRACK 06 AUDIO
TITLE "I Know Him Too"
PERFORMER "Tift Merritt"
INDEX 01 00:00:00
TRACK 07 AUDIO
TITLE "Sunday"
PERFORMER "Tift Merritt"
INDEX 00 03:51:23
FILE "07 - Sunday.flac" WAVE
INDEX 01 00:00:00
TRACK 08 AUDIO
TITLE "Supposed To Make You Happy"
PERFORMER "Tift Merritt"
INDEX 00 06:09:20
FILE "08 - Supposed To Make You Happy.flac" WAVE
INDEX 01 00:00:00
TRACK 09 AUDIO
TITLE "Diamond Shoes"
PERFORMER "Tift Merritt"
INDEX 00 04:19:70
FILE "09 - Diamond Shoes.flac" WAVE
INDEX 01 00:00:00
TRACK 10 AUDIO
TITLE "Are You Still In Love With Me?"
PERFORMER "Tift Merritt"
INDEX 00 04:46:63
FILE "10 - Are You Still In Love With Me.flac" WAVE
INDEX 01 00:00:00
TRACK 11 AUDIO
TITLE "When I Cross Over"
PERFORMER "Tift Merritt"
INDEX 00 05:19:63
FILE "11 - When I Cross Over.flac" WAVE
INDEX 01 00:00:00
REM GENRE Folk/Rock
REM DATE 2004
REM DISCID A20ACC0C
REM COMMENT "ExactAudioCopy v0.99pb5"
PERFORMER "Tift Merritt"
TITLE "Tambourine"
FILE "Tift Merritt - Tambourine - 01 - Stray Paper.flac" WAVE
TRACK 01 AUDIO
TITLE "Stray Paper"
PERFORMER "Tift Merritt"
FLAGS DCP
INDEX 01 00:00:00
TRACK 02 AUDIO
TITLE "Wait It Out"
PERFORMER "Tift Merritt"
FLAGS DCP
INDEX 00 03:55:00
FILE "Tift Merritt - Tambourine - 02 - Wait It Out.flac" WAVE
INDEX 01 00:00:00
TRACK 03 AUDIO
TITLE "Good Hearted Man"
PERFORMER "Tift Merritt"
FLAGS DCP
INDEX 00 03:40:09
FILE "Tift Merritt - Tambourine - 03 - Good Hearted Man.flac" WAVE
INDEX 01 00:00:00
TRACK 04 AUDIO
TITLE "Ain't Looking Closely"
PERFORMER "Tift Merritt"
FLAGS DCP
INDEX 00 03:39:00
FILE "Tift Merritt - Tambourine - 04 - Ain't Looking Closely.flac" WAVE
INDEX 01 00:00:00
TRACK 05 AUDIO
TITLE "Still Pretending"
PERFORMER "Tift Merritt"
FLAGS DCP
INDEX 00 04:24:03
FILE "Tift Merritt - Tambourine - 05 - Still Pretending.flac" WAVE
INDEX 01 00:00:00
TRACK 06 AUDIO
TITLE "Write My Ticket"
PERFORMER "Tift Merritt"
FLAGS DCP
INDEX 00 03:42:74
FILE "Tift Merritt - Tambourine - 06 - Write My Ticket.flac" WAVE
INDEX 01 00:00:00
TRACK 07 AUDIO
TITLE "Your Love Made A U-Turn"
PERFORMER "Tift Merritt"
FLAGS DCP
INDEX 00 03:43:55
FILE "Tift Merritt - Tambourine - 07 - Your Love Made A U-Turn.flac" WAVE
INDEX 01 00:00:00
TRACK 08 AUDIO
TITLE "Plainest Thing"
PERFORMER "Tift Merritt"
FLAGS DCP
INDEX 00 02:33:29
FILE "Tift Merritt - Tambourine - 08 - Plainest Thing.flac" WAVE
INDEX 01 00:00:00
TRACK 09 AUDIO
TITLE "Late Night Pilgrim"
PERFORMER "Tift Merritt"
FLAGS DCP
INDEX 00 03:31:38
FILE "Tift Merritt - Tambourine - 09 - Late Night Pilgrim.flac" WAVE
INDEX 01 00:00:00
TRACK 10 AUDIO
TITLE "I Am Your Tambourine"
PERFORMER "Tift Merritt"
FLAGS DCP
INDEX 00 04:25:39
FILE "Tift Merritt - Tambourine - 10 - I Am Your Tambourine.flac" WAVE
INDEX 01 00:00:00
TRACK 11 AUDIO
TITLE "Laid A Highway"
PERFORMER "Tift Merritt"
FLAGS DCP
INDEX 00 03:44:00
FILE "Tift Merritt - Tambourine - 11 - Laid A Highway.flac" WAVE
INDEX 01 00:00:00
TRACK 12 AUDIO
TITLE "Shadow In The Way"
PERFORMER "Tift Merritt"
FLAGS DCP
INDEX 00 03:53:29
FILE "Tift Merritt - Tambourine - 12 - Shadow In The Way.flac" WAVE
INDEX 01 00:00:00
REM GENRE Americana
REM DATE 2008
REM DISCID A309DA0B
REM COMMENT "ExactAudioCopy v0.99pb4"
PERFORMER "Tift Merritt"
TITLE "Another Country"
FILE "Tift Merritt - Another Country.ape" WAVE
TRACK 01 AUDIO
TITLE "Something To Me"
PERFORMER "Tift Merritt"
INDEX 01 00:00:00
TRACK 02 AUDIO
TITLE "Broken"
PERFORMER "Tift Merritt"
INDEX 00 04:09:58
INDEX 01 04:11:32
TRACK 03 AUDIO
TITLE "Another Country"
PERFORMER "Tift Merritt"
INDEX 00 07:55:74
INDEX 01 07:57:24
TRACK 04 AUDIO
TITLE "Hopes Too High"
PERFORMER "Tift Merritt"
INDEX 00 12:40:01
INDEX 01 12:42:18
TRACK 05 AUDIO
TITLE "Morning Is My Destination"
PERFORMER "Tift Merritt"
INDEX 00 16:15:04
INDEX 01 16:16:18
TRACK 06 AUDIO
TITLE "Keep You Happy"
PERFORMER "Tift Merritt"
INDEX 00 19:34:15
INDEX 01 19:35:63
TRACK 07 AUDIO
TITLE "I Know What I'm Looking For Now"
PERFORMER "Tift Merritt"
INDEX 00 24:41:37
INDEX 01 24:43:69
TRACK 08 AUDIO
TITLE "Tell Me Something True"
PERFORMER "Tift Merritt"
INDEX 00 28:41:67
INDEX 01 28:43:25
TRACK 09 AUDIO
TITLE "My Heart Is Free"
PERFORMER "Tift Merritt"
INDEX 00 31:44:04
INDEX 01 31:45:04
TRACK 10 AUDIO
TITLE "Tender Branch"
PERFORMER "Tift Merritt"
INDEX 00 35:14:71
INDEX 01 35:17:48
TRACK 11 AUDIO
TITLE "Mille Tendresses"
PERFORMER "Tift Merritt"
INDEX 00 38:48:69
INDEX 01 38:51:60
REM GENRE "Country"
REM DATE 2010
PERFORMER "Tift Merritt"
TITLE "See You On The Moon"
FILE "01 - Mixtape.flac" WAVE
TRACK 01 AUDIO
TITLE "Mixtape"
PERFORMER "Tift Merritt"
INDEX 01 00:00:00
FILE "02 - Engine To Turn.flac" WAVE
TRACK 02 AUDIO
TITLE "Engine To Turn"
PERFORMER "Tift Merritt"
INDEX 01 00:00:00
FILE "03 - The Things That Everybody Does.flac" WAVE
TRACK 03 AUDIO
TITLE "The Things That Everybody Does"
PERFORMER "Tift Merritt"
INDEX 01 00:00:00
FILE "04 - Six More Days Of Rain.flac" WAVE
TRACK 04 AUDIO
TITLE "Six More Days Of Rain"
PERFORMER "Tift Merritt"
INDEX 01 00:00:00
TRACK 05 AUDIO
TITLE "Feel Of The World"
PERFORMER "Tift Merritt"
INDEX 00 02:45:57
FILE "05 - Feel Of The World.flac" WAVE
INDEX 01 00:00:00
TRACK 06 AUDIO
TITLE "Never Talk About It"
PERFORMER "Tift Merritt"
INDEX 00 04:43:25
FILE "06 - Never Talk About It.flac" WAVE
INDEX 01 00:00:00
FILE "07 - All The Reasons We Don't Have To Fight.flac" WAVE
TRACK 07 AUDIO
TITLE "All The Reasons We Don't Have To Fight"
PERFORMER "Tift Merritt"
INDEX 01 00:00:00
TRACK 08 AUDIO
TITLE "Live Till You Die"
PERFORMER "Tift Merritt"
INDEX 00 04:37:65
FILE "08 - Live Till You Die.flac" WAVE
INDEX 01 00:00:00
FILE "09 - Papercut.flac" WAVE
TRACK 09 AUDIO
TITLE "Papercut"
PERFORMER "Tift Merritt"
INDEX 01 00:00:00
TRACK 10 AUDIO
TITLE "See You On The Moon"
PERFORMER "Tift Merritt"
INDEX 00 02:49:58
FILE "10 - See You On The Moon.flac" WAVE
INDEX 01 00:00:00
TRACK 11 AUDIO
TITLE "Danny's Song"
PERFORMER "Tift Merritt"
INDEX 00 04:33:11
FILE "11 - Danny's Song.flac" WAVE
INDEX 01 00:00:00
TRACK 12 AUDIO
TITLE "After Today"
PERFORMER "Tift Merritt"
INDEX 00 02:07:42
FILE "12 - After Today.flac" WAVE
INDEX 01 00:00:00
REM COMMENT "CUETools generated dummy CUE sheet"
FILE "01 - Traveling Alone.flac" WAVE
TRACK 01 AUDIO
INDEX 01 00:00:00
FILE "02 - Sweet Spot.flac" WAVE
TRACK 02 AUDIO
INDEX 01 00:00:00
FILE "03 - Drifted Apart.flac" WAVE
TRACK 03 AUDIO
INDEX 01 00:00:00
FILE "04 - Still Not Home.flac" WAVE
TRACK 04 AUDIO
INDEX 01 00:00:00
FILE "05 - Feeling of Beauty.flac" WAVE
TRACK 05 AUDIO
INDEX 01 00:00:00
FILE "06 - Too Soon to Go.flac" WAVE
TRACK 06 AUDIO
INDEX 01 00:00:00
FILE "07 - Small Talk Relations.flac" WAVE
TRACK 07 AUDIO
INDEX 01 00:00:00
FILE "08 - Spring.flac" WAVE
TRACK 08 AUDIO
INDEX 01 00:00:00
FILE "09 - To Myself.flac" WAVE
TRACK 09 AUDIO
INDEX 01 00:00:00
FILE "10 - In the Way.flac" WAVE
TRACK 10 AUDIO
INDEX 01 00:00:00
FILE "11 - Marks.flac" WAVE
TRACK 11 AUDIO
INDEX 01 00:00:00
AUDIOCHECKER v2.0 beta (build 457) - by Dester - <a href="mailto:opdester@freemail.hu" class="postLink">opdester@freemail.hu</a>
~~~~~~~~~~~~~~~~~~~~~~~~~~~~~~~~~~
-=== DO NOT EDIT THIS FILE! ===-

Path: ...\2002 - Bramble Rose

01 -=- 01 - Trouble Over Me.flac -=- CDDA (99%)
02 -=- 02 - Virginia, No One Can Warn You.flac -=- CDDA (100%)
03 -=- 03 - Neighborhood.flac -=- CDDA (100%)
04 -=- 04 - Bird Of Freedom.flac -=- CDDA (100%)
05 -=- 05 - Bramble Rose.flac -=- CDDA (100%)
06 -=- 06 - I Know Him Too.flac -=- CDDA (100%)
07 -=- 07 - Sunday.flac -=- CDDA (100%)
08 -=- 08 - Supposed To Make You Happy.flac -=- CDDA (100%)
09 -=- 09 - Diamond Shoes.flac -=- CDDA (100%)
10 -=- 10 - Are You Still In Love With Me.flac -=- CDDA (100%)
11 -=- 11 - When I Cross Over.flac -=- CDDA (100%)

Summary 99,91% CDDA

243341396
AUDIOCHECKER v2.0 beta (build 457) - by Dester - <a href="mailto:opdester@freemail.hu" class="postLink">opdester@freemail.hu</a>
~~~~~~~~~~~~~~~~~~~~~~~~~~~~~~~~~~
-=== DO NOT EDIT THIS FILE! ===-

Path: ...\2004 - Tambourine

01 -=- Tift Merritt - Tambourine - 01 - Stray Paper.flac -=- CDDA (100%)
02 -=- Tift Merritt - Tambourine - 02 - Wait It Out.flac -=- CDDA (100%)
03 -=- Tift Merritt - Tambourine - 03 - Good Hearted Man.flac -=- CDDA (100%)
04 -=- Tift Merritt - Tambourine - 04 - Ain't Looking Closely.flac -=- CDDA (85%)
05 -=- Tift Merritt - Tambourine - 05 - Still Pretending.flac -=- CDDA (100%)
06 -=- Tift Merritt - Tambourine - 06 - Write My Ticket.flac -=- CDDA (100%)
07 -=- Tift Merritt - Tambourine - 07 - Your Love Made A U-Turn.flac -=- CDDA (100%)
08 -=- Tift Merritt - Tambourine - 08 - Plainest Thing.flac -=- CDDA (100%)
09 -=- Tift Merritt - Tambourine - 09 - Late Night Pilgrim.flac -=- CDDA (100%)
10 -=- Tift Merritt - Tambourine - 10 - I Am Your Tambourine.flac -=- CDDA (100%)
11 -=- Tift Merritt - Tambourine - 11 - Laid A Highway.f
AUDIOCHECKER v2.0 beta (build 457) - by Dester - <a href="mailto:opdester@freemail.hu" class="postLink">opdester@freemail.hu</a>
~~~~~~~~~~~~~~~~~~~~~~~~~~~~~~~~~~
-=== DO NOT EDIT THIS FILE! ===-

Path: ...\2008 - Another Country

1 -=- Tift Merritt - Another Country.ape -=- CDDA (100%)

241568980
AUDIOCHECKER v2.0 beta (build 457) - by Dester - <a href="mailto:opdester@freemail.hu" class="postLink">opdester@freemail.hu</a>
~~~~~~~~~~~~~~~~~~~~~~~~~~~~~~~~~~
-=== DO NOT EDIT THIS FILE! ===-

Path: ...\2010 - See You On The Moon

01 -=- 01 - Mixtape.flac -=- CDDA (100%)
02 -=- 02 - Engine To Turn.flac -=- CDDA (100%)
03 -=- 03 - The Things That Everybody Does.flac -=- CDDA (100%)
04 -=- 04 - Six More Days Of Rain.flac -=- CDDA (100%)
05 -=- 05 - Feel Of The World.flac -=- CDDA (100%)
06 -=- 06 - Never Talk About It.flac -=- CDDA (100%)
07 -=- 07 - All The Reasons We Don't Have To Fight.flac -=- CDDA (100%)
08 -=- 08 - Live Till You Die.flac -=- CDDA (100%)
09 -=- 09 - Papercut.flac -=- CDDA (100%)
10 -=- 10 - See You On The Moon.flac -=- CDDA (100%)
11 -=- 11 - Danny's Song.flac -=- CDDA (100%)
12 -=- 12 - After Today.flac -=- CDDA (100%)

Summary 100,00% CDDA

129876100
AUDIOCHECKER v2.0 beta (build 457) - by Dester - <a href="mailto:opdester@freemail.hu" class="postLink">opdester@freemail.hu</a>
~~~~~~~~~~~~~~~~~~~~~~~~~~~~~~~~~~
-=== DO NOT EDIT THIS FILE! ===-

Path: ...\2012 - Traveling Alone

01 -=- 01 - Traveling Alone.flac -=- CDDA (100%)
02 -=- 02 - Sweet Spot.flac -=- CDDA (100%)
03 -=- 03 - Drifted Apart.flac -=- CDDA (43%)
04 -=- 04 - Still Not Home.flac -=- CDDA (100%)
05 -=- 05 - Feeling of Beauty.flac -=- CDDA (100%)
06 -=- 06 - Too Soon to Go.flac -=- CDDA (99%)
07 -=- 07 - Small Talk Relations.flac -=- CDDA (100%)
08 -=- 08 - Spring.flac -=- CDDA (100%)
09 -=- 09 - To Myself.flac -=- CDDA (100%)
10 -=- 10 - In the Way.flac -=- CDDA (99%)
11 -=- 11 - Marks.flac -=- CDDA (100%)

Summary 94,64% CDDA

239792868
Доп. информация:
WebSite: Tift Merritt (http://en.wikipedia.org/wiki/Tift_Merritt)
Website: (http://.tiftmerritt.com)
Birth name Catherine Tift Merritt[1]
Born January 8, 1975
Houston, Texas
Origin Raleigh, North Carolina, United States
Genres Folk
Rock
Alternative country
Occupations Musician
Songwriter
Instruments Vocals
Guitar
Keyboards
Piano
Harmonica
Years active 1998–present
Labels Lost Highway, Fantasy, Yep Roc
Associated acts The Two Dollar Pistols with Tift Merritt


Трекер:  [ 10-Дек-2012 06:31 ]

  

Скачать .torrent

Размер .torrent файла 22 KB


Размер: 1.43 GB
Хэш (hash) релиза: ef306493ffc01a49bb3a7f833c82f9cad7e4bbfd

Еще никто не оставлял запись к записи скачать торрент Tift Merritt - Studio Discography - 2002-2012, FLAC . Будь первым!

!Обратная связь