Скачать через торрент музыку Seventh Key - Live in Atlanta бесплатно без регистрации torrent

Если у вас наблюдаются проблемы со скриншотами, переходом по ссылками, скачиванием торрентов - проблемы в блокировщике рекламы AdBlock. #хорошегоДня!


Статистика раздачи
Размер:  587 MB   |    Зарегистрирован:  4 года 10 месяцев   |    .torrent скачан:  12 раз   |   
Раздают:  1  
   
Загрузка...
 
Автор Сообщение

Galfimbul

avatar Galfimbul


Seventh Key / Live in Atlanta (2005)

Жанр: Rock
Год издания: 2006
Аудиокодек: FLAC (*.flac)
Тип рипа: image+.cue
Битрейт аудио: lossless
Продолжительность: 79:48
Источник (релизер): my disc
Наличие сканов в содержимом раздачи: да
Треклист:
01. The Sun Will Rise [0:05:03.59]
02. An Ocean Away [0:04:40.35]
03. It Should Have Been You [0:05:46.07]
04. Sin City [0:05:30.06]
05. Always From The Heart [0:05:30.23]
06. Forsaken [0:06:20.25]
07. You Cross The Line [0:06:38.43]
08. The Kid Could Play [0:04:46.68]
09. Only The Brave [0:05:53.73]
10. When Love Is Oying [0:05:56.58]
11. Winds Of War [0:06:44.69]
12. Cold Hearted Woman [0:04:06.60]
13. The Storm Rages On (Studio Bonus Track) [0:03:23.14]
14. Remember You Well (Studio Bonus Track) [0:04:39.68]
15. Love Train (Studio Bonus Track) [0:04:45.69]
Exact Audio Copy V0.99 prebeta 4 from 23. January 2008

Отчёт EAC об извлечении, выполненном 6. декабря 2012, 7:04

Seventh Key / Live In Atlanta

Дисковод: ASUS DRW-1814BL Adapter: 1 ID: 0

Режим чтения : ДостоверностьИспользование точного потока : ДаОтключение кэша аудио : ДаИспользование указателей C2 : Нет

Коррекция смещения при чтении : 6Способность читать области Lead-in и Lead-out : НетЗаполнение пропущенных сэмплов тишиной : ДаУдаление блоков с тишиной в начале и конце : НетПри вычислениях CRC использовались нулевые сэмплы : ДаИнтерфейс : Установленный внешний ASPI-интерфейс

Выходной формат : Пользовательский кодировщикВыбранный битрейт : 1024 kBit/sКачество : ВысокийДобавление ID3-тэга : НетУтилита сжатия : C:\Program Files\Exact Audio Copy\FLAC\FLAC.EXEДополнительные параметры : -6 -V -T "ARTIST=%a" -T "TITLE=%t" -T "ALBUM=%g" -T "DATE=%y" -T "TRACKNUMBER=%n" -T "GENRE=%m" -T "COMMENT=%e" %s -o %d

TOC извлечённого CD

Трек | Старт | Длительность | Начальный сектор | Конечный сектор --------------------------------------------------------------------- 1 | 0:00.00 | 5:03.59 | 0 | 22783 2 | 5:03.59 | 4:40.35 | 22784 | 43818 3 | 9:44.19 | 5:46.07 | 43819 | 69775 4 | 15:30.26 | 5:30.06 | 69776 | 94531 5 | 21:00.32 | 5:30.23 | 94532 | 119304 6 | 26:30.55 | 6:20.25 | 119305 | 147829 7 | 32:51.05 | 6:38.43 | 147830 | 177722 8 | 39:29.48 | 4:46.68 | 177723 | 199240 9 | 44:16.41 | 5:53.73 | 199241 | 225788 10 | 50:10.39 | 5:56.58 | 225789 | 252546 11 | 56:07.22 | 6:44.69 | 252547 | 282915 12 | 62:52.16 | 4:06.60 | 282916 | 301425 13 | 66:59.01 | 3:23.14 | 301426 | 316664 14 | 70:22.15 | 4:39.68 | 316665 | 337657 15 | 75:02.08 | 4:45.69 | 337658 | 359101

Характеристики диапазона извлечения и сообщения об ошибках

Выбранный диапазон

Имя файла D:\loSSleSS\seventh key'05\Seventh Key - Live In Atlanta.wav

Пиковый уровень 100.0 % Качество диапазона 99.9 % CRC теста F56B1C23 CRC копии F56B1C23 Копирование... OK

Ошибок не произошло

AccurateRip: сводка

Трек 1 точность не определена (достоверность 3) [85C03FBA], AccurateRip вернул [2BD95E38]Трек 2 точность не определена (достоверность 4) [0213C50B], AccurateRip вернул [ACE8D573]Трек 3 точность не определена (достоверность 4) [8618E991], AccurateRip вернул [75A88CD1]Трек 4 точность не определена (достоверность 4) [EE7FEA6D], AccurateRip вернул [79A86645]Трек 5 точность не определена (достоверность 4) [CA1F9396], AccurateRip вернул [B52223A6]Трек 6 точность не определена (достоверность 4) [48289D55], AccurateRip вернул [B0B247A5]Трек 7 точность не определена (достоверность 4) [6D60D339], AccurateRip вернул [D765C761]Трек 8 точность не определена (достоверность 4) [3ED49407], AccurateRip вернул [8D8C9487]Трек 9 точность не определена (достоверность 4) [2A5ADB8C], AccurateRip вернул [804E51BC]Трек 10 точность не определена (достоверность 4) [87016428], AccurateRip вернул [26769AB0]Трек 11 точность не определена (достоверность 4) [DE2CEE76], AccurateRip вернул [CD40A706]Трек 12 точность не определена (достоверность 4) [1F4F4DB7], AccurateRip вернул [AD6AE7E7]Трек 13 точность не определена (достоверность 4) [7FEA417D], AccurateRip вернул [44830D2D]Трек 14 точность не определена (достоверность 4) [A997C737], AccurateRip вернул [D00BC5F7]Трек 15 точность не определена (достоверность 4) [40092226], AccurateRip вернул [26679DBE]

Ни один трек не прошёл проверки на точностьВ вашей базе может быть иной вариант штамповки диска

Конец отчёта
Доп. информация: На трекере можно найти DVD версию.
Seventh Key - студийный проект, в основе которого – никто иной, как басист и второй вокалист KANSAS БИЛЛИ ГРИР. Стиль можно описать как потрясающее современное смешение мощного рокового подхода STREETS и классической мелодики KANSAS конца восьмидесятых годов. Билли начал свою музыкальную карьеру в 1997 году, когда стал ведущим вокалистом команды под названием QBI. Позднее он присоединился к Стиву Уолшу, который в тот момент только что покинул Kansas, чтобы продолжить свою карьеру в группе STREETS, в состав которой входил также гитарист МАЙК СЛАММЕР. STREETS записали два студийных альбома для Atlantic Records и объехали США с концертами в их поддержку. STREETS развалилась в конце 1984 года, а вскоре после этого Билли получил предложение присоединиться к KANSAS в качестве постоянного басиста. Само собой, Билли принимал участие в записи последнего студийного альбома Kansas под названием “Somewhere To Elsewhere”, для работы над которым в основной состав вернулся основатель группы Керри Ливгрен. Дебют Билли как основного вокалиста состоялся в песне “Look At The Time”. Кроме того, он принимал участие в работе над проектом GLOSSOLALIA вместе со Стивом Уолшем, Майком Сламмером и Трентом Гарденом из Magellan. Последний сейчас входит в звездный состав группы THE SIGN, права на выпуск которой принадлежат Frontiers Records. SEVENTH KEY - проект Билли Грира, в записи которого также принимали участие такие всемирно известные исполнители, как гитарист СТИВ МОРРИС (Kansas, Dixie Drags, Deep Purple), МАЙК СЛАММЕР (Streets, Steelhouse Lane - он кроме того занимался продюсированием альбома), РИЧАРД ВИЛЬЯМС, ФИЛ ЭХАРТ и СТИВ УОЛШ (все из Kansas). Среди авторов песен - все вышеупомянутые музыканты, плюс ДЭВИД МЭНИОН, РОН МИЛЛЕР, МАРК СПИРО и другие.
Дабы закрепить успех двух студийных альбомов своего мелодик-рок-проекта SEVENTH KEY, басист группы KANSAS Билли Грир выпускает концертный альбом и DVD. Записанный 23 мая 2005 года в Атланте, он содержит 12 лучших композиций группы (некоторые из которых написаны "канзасовцами" Керри Ливгреном и Стивом Уолшем) и три студийных бонус-трека. Наряду с музыкантами, составляющими костяк группы, включая давнего товарища Грира по группе STREETS гитариста Майка Сламера, здесь отметился знатный гость - скрипач Робби Стейнхардт из KANSAS.
Billy Greer:lead vocals,bass guitar
Mike Slamer:lead guitar
Terry Brock:rhythm guitar,background vocals
David Manion:keyboards
Pat McDonald:drums
Special guests:
Robby Steinhardt:violin
Johnny Greer:mandolin


Трекер:  [ 10-Дек-2012 06:31 ]

  

Скачать .torrent

Размер .torrent файла 12 KB


Размер: 587 MB
Хэш (hash) релиза: 02d355a6b1f04a7476ac215b6a698520b5f9c114

Еще никто не оставлял запись к записи скачать торрент Seventh Key - Live in Atlanta . Будь первым!

!Обратная связь