Скачать через торрент музыку The World бесплатно без регистрации torrent

Если у вас наблюдаются проблемы со скриншотами, переходом по ссылками, скачиванием торрентов - проблемы в блокировщике рекламы AdBlock. #хорошегоДня!


Статистика раздачи
Размер:  233 MB   |    Зарегистрирован:  4 года 8 месяцев   |    .torrent скачан:  8 раз   |   
Раздают:  1  
   
Загрузка...
 
Автор Сообщение

Galfimbul

avatar Galfimbul


The World (Neil Innes, Bonzo Dog Doo Dah Band) / Lucky Planet

Жанр: Progressive Rock
Страна-производитель диска: England
Год издания: 1970
Издатель (лейбл): Vinyl Japan (UK)
Номер по каталогу: ASKCD 138
Страна: UK
Аудиокодек: FLAC (*.flac)
Тип рипа: image+.cue
Битрейт аудио: lossless
Продолжительность: 37:49
Источник (релизер): havefun6699
Наличие сканов в содержимом раздачи: да
Треклист:
1 Not the First Time (Cowan, Innes) 4:03
2 Sail Away (Innes) 3:31
3 9-5 Pollution Blues (Innes) 4:26
4 Lead Us (Innes) 5:12
5 Things I Could Have Said (Innes) 4:08
6 Come Out into the Open (Innes) 3:07
7 Godzilla's Return (Innes) 10:27
8 Angelina (Innes) 2:51
Exact Audio Copy V0.99 prebeta 4 from 23. January 2008

Отчёт EAC об извлечении, выполненном 16. марта 2011, 9:48

The World / Lucky Planet

Дисковод: Optiarc DVD RW AD-7200A Adapter: 0 ID: 0

Режим чтения : ДостоверностьИспользование точного потока : ДаОтключение кэша аудио : ДаИспользование указателей C2 : Нет

Коррекция смещения при чтении : 48Способность читать области Lead-in и Lead-out : НетЗаполнение пропущенных сэмплов тишиной : ДаУдаление блоков с тишиной в начале и конце : НетПри вычислениях CRC использовались нулевые сэмплы : ДаИнтерфейс : Встроенный Win32-интерфейс для Win NT/2000

Выходной формат : Пользовательский кодировщикВыбранный битрейт : 768 kBit/sКачество : ВысокийДобавление ID3-тэга : НетУтилита сжатия : C:\Program Files\Exact Audio Copy\FLAC\FLAC.EXEДополнительные параметры : -6 -V -T "ARTIST=%a" -T "TITLE=%t" -T "ALBUM=%g" -T "DATE=%y" -T "TRACKNUMBER=%n" -T "GENRE=%m" -T "COMMENT=%e" %s -o %d

TOC извлечённого CD

Трек | Старт | Длительность | Начальный сектор | Конечный сектор --------------------------------------------------------------------- 1 | 0:00.00 | 4:03.43 | 0 | 18267 2 | 4:03.43 | 3:31.48 | 18268 | 34140 3 | 7:35.16 | 4:26.22 | 34141 | 54112 4 | 12:01.38 | 5:12.38 | 54113 | 77550 5 | 17:14.01 | 4:08.01 | 77551 | 96151 6 | 21:22.02 | 3:07.38 | 96152 | 110214 7 | 24:29.40 | 10:27.64 | 110215 | 157303 8 | 34:57.29 | 2:51.50 | 157304 | 170178

Характеристики диапазона извлечения и сообщения об ошибках

Выбранный диапазон

Имя файла D:\http://рутраскер\The World - Lucky Planet\The World - Lucky Planet.wav

Пиковый уровень 100.0 % Качество диапазона 100.0 % CRC копии FA363FE6 Копирование... OK

Ошибок не произошло

AccurateRip: сводка

Трек 1 нет в базе данныхТрек 2 нет в базе данныхТрек 3 нет в базе данныхТрек 4 нет в базе данныхТрек 5 нет в базе данныхТрек 6 нет в базе данныхТрек 7 нет в базе данныхТрек 8 нет в базе данных

Ни одного трека нет в базе AccurateRip

Конец отчёта
REM GENRE RockREM DATE 1970REM DISCID 6308DD08REM COMMENT "ExactAudioCopy v0.99pb4"PERFORMER "The World"TITLE "Lucky Planet"FILE "The World - Lucky Planet.flac" WAVE TRACK 01 AUDIO TITLE "Not the First Time" PERFORMER "The World" INDEX 01 00:00:00 TRACK 02 AUDIO TITLE "Sail Away" PERFORMER "The World" INDEX 00 04:02:14 INDEX 01 04:03:43 TRACK 03 AUDIO TITLE "9-5 Pollution Blues" PERFORMER "The World" INDEX 00 07:33:54 INDEX 01 07:35:16 TRACK 04 AUDIO TITLE "Lead Us" PERFORMER "The World" INDEX 00 11:58:56 INDEX 01 12:01:38 TRACK 05 AUDIO TITLE "Things I Could Have Said" PERFORMER "The World" INDEX 00 17:12:44 INDEX 01 17:14:01 TRACK 06 AUDIO TITLE "Come Into The Open" PERFORMER "The World" INDEX 00 21:21:61 INDEX 01 21:22:02 TRACK 07 AUDIO TITLE "Godzilla's Return" PERFORMER "The World" INDEX 00 24:27:06 INDEX 01 24:29:40 TRACK 08 AUDIO TITLE "Angelina" PERFORMER "The World" INDEX 00 34:55:47 INDEX 01 34:57:29
Line-Up :
Neil Innes - Lead vocals, guitar, piano
Dennis Cowan - Bass, guitar, vocals
Ian Wallace - Drums, vocals
Roger McKew - Lead guitar


Трекер:  [ 09-Дек-2012 21:50 ]

  

Скачать .torrent

Размер .torrent файла 19 KB


Размер: 233 MB
Хэш (hash) релиза: 7d9afc84b4fe2e8eaee4c6e2798eef2199d6f87e

Торренты, похожие на The World скачать торрент

Форум Название Автор Размер S L Добавлен
Rосk | Mеtаl | Аltеrnаtivе, Рunk, Indереndеnt (mр3) ·· (Folk-Rock, Alternative Country) Danny and the Champions of the World (Danny & the Champions of the World) - Коллекция 2010-2017 (4 релиза), MP3, 320 kbps Galfimbul 501597626478 MB 0 0 1502312687

00:04

10-Авг-17

Электронная музыка (lossless) ·· (Power Electronics) [CD] World Downfall - When The World Ends - 2008, FLAC (image+.cue), lossless Galfimbul 409658756391 MB 0 0 1414954819

22:00

2-Ноя-14

Rосk | Mеtаl | Аltеrnаtivе, Рunk, Indереndеnt (mр3) ·· (Post-Rock) Around The World in 80 Days - World Around Me - 2011, MP3, 320 kbps Galfimbul 6055170658 MB 0 0 1372020196

23:43

23-Июн-13

Фольклор, Народная и Этническая музыка ·· (Gnawa music, World fusion) Hassan Hakmoun - Life Around the World - 1995, MP3, V1 Galfimbul 10401631499 MB 0 0 1351009200

19:20

23-Окт-12

Фольклор, Народная и Этническая музыка ·· (ethnic, world, shakuhachi) Akikazu Nakamura - The World of Zen Music. Shakuhachi Music from Kyoto I 'Koku', FLAC (tracks+.cue), lossless Galfimbul 280939932268 MB 0 0 1337193540

21:39

16-Май-12

Электронная музыка (lossless) ·· (Progressive House, Tech House) Moonbeam - Around The World - 2010 (World Club Music: #ПРЗ CD29173), FLAC (tracks+.cue), lossless _N_ 592889580565 MB 0 0 1329196231

08:10

14-Фев-12

Rосk | Mеtаl | Аltеrnаtivе, Рunk, Indереndеnt (mр3) ·· (Indie - Rock) The Mountain Goats - The Life of the World in Flux - 2009, MP3 (tracks), VBR 171-207 kbps Galfimbul 6119671058 MB 0 0 1499611176

17:39

9-Июл-17

Rосk | Mеtаl | Аltеrnаtivе, Рunk, Indереndеnt (mр3) ·· (Psychedelic Folk, Indie Folk, Freak Folk, Americana, Singer/Songwriter) Wooden Wand (& The Vanishing Voice, The Sky High Band, The World War IV) - Коллекция 2004-2017, MP3, 320 kbps Galfimbul 791201961755 MB 0 0 1497906631

00:10

20-Июн-17

Rосk | Mеtаl | Аltеrnаtivе, Рunk, Indереndеnt (mр3) ·· (Thrash Metal/Hardcore) Needle In The Cross - Badasses A Portal And The End Of The World - 2016, MP3, 320 kbps Galfimbul 129160704123 MB 0 0 1465242604

22:50

6-Июн-16

Электронная музыка (mp3) ·· (Goa, Progressive Psytrance) The Faithealers - Until The End Of The World (2015), MP3, 320 kbps Galfimbul 151439657144 MB 0 0 1448120083

18:34

21-Ноя-15

Rосk | Mеtаl | Аltеrnаtivе, Рunk, Indереndеnt (mр3) ·· (Irish Punk) Mr. Irish Bastard - The World, The Flesh & The Devil - 2015, MP3, 320 kbps Galfimbul 121835967116 MB 0 0 1438513810

14:10

2-Авг-15

Rосk | Mеtаl | Аltеrnаtivе, Рunk, Indереndеnt (mр3) ·· (Steampunk) Abney Park - The Circus At The End Of The World - 2013, MP3, V0 Galfimbul 8646193082 MB 0 0 1379666304

11:38

20-Сен-13

Rосk | Mеtаl | Аltеrnаtivе, Рunk, Indереndеnt (mр3) ·· (Indie Folk, Alt. Country) Over The Rhine - Meet Me At The Edge Of The World [2CD] - 2013, MP3, 320 kbps _N_ 169029380161 MB 0 0 1375389691

23:41

1-Авг-13

Зарубежный Rock ·· (Symphonic Rock) Jeff Wayne - Jeff Wayne's Musical Version Of The War Of The Worlds, The New Generation - 2012 (2 CD), MP3, 320 kbps Galfimbul 248682240237 MB 0 0 1355112120

07:02

10-Дек-12

Зарубежный Rock ·· (Pop Rock / Folk Rock / Alternative Country) Phillip Phillips - The World From The Side Of The Moon (Target Exclusive Deluxe Edition) - 2012, MP3 (tracks), 320 kbps Galfimbul 163481390156 MB 0 0 1354542900

16:55

3-Дек-12

Rосk | Mеtаl | Аltеrnаtivе, Рunk, Indереndеnt (losslеss) ·· (Progressive Rock) The Tangent:2003 The Music That Died Alone + 2004 The World That We Drive Through - 2003, FLAC (image + .cue), lossless Galfimbul 838100674799 MB 0 0 1297859306

15:28

16-Фев-11

Rосk | Mеtаl | Аltеrnаtivе, Рunk, Indереndеnt (mр3) ·· (industrial-metal, circus-metal) Circus Of Dead Squirrels - The Pop Culture Massacre And The End Of The World - 2007, MP3 (tracks), 256 kbps AqvaGen 8777553684 MB 0 0 1296040502

14:15

26-Янв-11

Rосk | Mеtаl | Аltеrnаtivе, Рunk, Indереndеnt (mр3) ·· (Heavy Metal) Black Hawk - The End Of The World - 2017, MP3, 320 kbps Galfimbul 115044392110 MB 0 0 1502768030

06:33

15-Авг-17

Rосk | Mеtаl | Аltеrnаtivе, Рunk, Indереndеnt (mр3) ·· (Alternative Metal) The Shape - The World Away - 2017, MP3, 320 kbps Galfimbul 132412984126 MB 0 0 1501774583

18:36

3-Авг-17

Rосk | Mеtаl | Аltеrnаtivе, Рunk, Indереndеnt (mр3) ·· (Progressive/Power Metal/Folk) Ale Brukman's Zaedyus Project - Stories From The End Of The World - 2017, MP3, 320 kbps Galfimbul 9865397894 MB 0 0 1501655753

09:35

2-Авг-17

Еще никто не оставлял запись к записи скачать торрент The World . Будь первым!

!Обратная связь