Скачать через торрент музыку The Rolling Stones - Discography бесплатно без регистрации torrent

Если у вас наблюдаются проблемы со скриншотами, переходом по ссылками, скачиванием торрентов - проблемы в блокировщике рекламы AdBlock. #хорошегоДня!


Статистика раздачи
Размер:  72.08 GB   |    Зарегистрирован:  4 года 8 месяцев   |    .torrent скачан:  127 раз   |   
Раздают:  1  
   
Загрузка...
 
Автор Сообщение

Galfimbul

avatar Galfimbul


The Rolling Stones - Discography (1964 - 2012)

Жанр: Rock | Год выпуска дисков: 1964 - 2012 | Аудио кодек: FLAC | Тип рипа: image+.cue/tracks+.cue |
Наличие сканов: да
Совместный релиз [b]Ironbelly и dafnaplus[/b]
Studio Albums:
1964 The Rolling Stones (2-nd Pr.) [London 820 047-2]
1964 England's Newest Hit Makers [ABKCO 8822872]
1964 12x5 [London 820 048-2]
1964 12x5 [ABKCO 94022]
1965 The Rolling Stones, Now! [London 820 133-2]
1965 The Rolling Stones, Now! [ABKCO 8822892]
1965 Out Of Our Heads UK [ABKCO 94302]
1965 December's Children (And Everybody's) [London 820 135-2]
1965 December's Children (And Everybody's) Br. [London 820 135-2]
1965 December's Children (And Everybody's) [UICY - 93018]
1966 Aftermath US [ABKCO 94762]
1966 Aftermath UK [UICY-93021]
1967 Between The Buttons UK [ABKCO 95002]
1967 Between The Buttons US [UICY-93023]
1967 Their Satanic Majesties Request [London 820129-2]
1967 Their Satanic Majesties Request [ABKCO 80022]
1967 Their Satanic Majesties Request [ABKCO 8823002]
1967 Their Satanic Majesties Request [UICY-93026]
1968 Beggars Banque (1-st Pr.) [London 800 084-2]
1968 Beggars Banquet [London 800 084-2]
1968 Beggars Banquet [ABKCO 75392]
1968 Beggars Banquet [ABKCO 95392]
1969 Let It Bleed (4-th Pr.) [London 820 052-2]
1969 Let It Bleed [ABKCO 8823032]
1973 Goats Head Soup [Virgin CDV 2735]
1973 Goats Head Soup [Virgin 7243-8-39498-2-3]
1976 Black and Blue [Virgin CDV2736]
1978 Some Girls [Virgin CDV 2724]
1978 Some Girls [VJCP-68036]
1978 Some Girls (2 CD Deluxe Ed.) [A&M 278 405-5]
1980 Emotional Rescue [Virgin 7243-8-39501-2-6]
1980 Emotional Rescue [TOCP-66457]
1981 Tattoo You [TOCP-66458]
1983 Undercover [CBS 4502002]
1983 Undercover [CBS CK40504]
1983 Undercover [Virgin CDV 2741]
1986 Dirty Work [Virgin CDV 2743]
1989 Steel Wheels [Virgin CDV 2742]
1997 Bridges to Babylon [VJCP-25333]
Live Albums:
1966 Got Live If You Want It![London 820 137-2]
1966 Got Live If You Want It![ABKCO 8822962]
1970 Get Yer Ya-Ya's Out! (3-th Ger. Pr.) [London 820 131-2]
1970 Get Yer Ya-Ya's Out! (4-th Fr. Pr.) [London 820 131-2]
1970 Get Yer Ya-Ya's Out! [ABKCO 90052]
1970 Get Yer Ya-Ya's Out! [UICY-93030]
1970 Get Yer Ya-Ya's Out! [ABKCO 02392]
1995 Stripped [Universal 0602527164298]
1995 Stripped [VJCP-25202]
1998 No Security [VJCP-25426]
1998 No Security (Album Sampler) [Virgin CDVDJ 2880]
2004 Live Licks [VJCP-68700-01]
2004 Live Licks Sampler [Virgin CDVDJ 3000]
2008 Shine A Light [Interscope B0010960-02]
2008 Shine A Light - Sampler [Polydor RSSHINE1]
2011 Some Girls, Live In Texas '78 [Eagle ERDVCD065]
2012 Muddy Waters & The Rolling Stones - Checkerboard Lounge [Eagle ERDVCD069]
2012 Charlie Is My Darling - Ireland 1965 [Universal 8110069]
Compilations Albums:
1966 Big Hits (High Tide And Green Grass) US [ABKCO 90012]
1966 Big Hits (High Tide And Green Grass) US [ABKCO 882322-2]
1967 Flowers [London 820 139-2]
1967 Flowers [ABKCO 95092]
1969 Through The Past Darkly (Big Hits Vol. 2) [ABKCO 8823022]
1969 Through The Past Darkly (Big Hits Vol. 2) [ABKCO 882331-2]
1971 Hot Rocks 1 (А) [London 820 141-2]
1971 Hot Rocks 2 (A) [London 820 142-2]
1971 Hot Rocks [ABKCO 882334-2]
1972 More Hot Rocks (Big Hits & Fazed Cookies) 1 [London 820 515-2]
1972 More Hot Rocks (Big Hits & Fazed Cookies) 2 [London 820 516-2]
1972 More Hot Rocks (Big Hits & Fazed Cookies) [ABKCO 96262]
1975 Metamorphosis [ABKCO 8823112]
1975 Metamorphosis [UICY-93038]
1975 Made In The Shade [CBS CCK 40494]
1981 Sucking In The Seventies [CBS CK 40501]
1989 Singles Collection: The London Years [ABKCO 882340-2]
1994 Desert Island Survival Kit [ABKCO 1848-2]
2000 Connection 1963 - 66 [SAGA RS1]
2002 Remastered [ABKCO 92152]
2002 Ten Licks From Forty Licks In Store Advance [ABKCO 708761751628]
2005 Rarities (1971-2003) [Virgin 094634811521]
2005 Therollingstonesinstoresampler [Virgin CDVDJ 3013]
2006 A Bigger Bang European Tour AMEX [EMI 3648712.0094636487120]
2009 Remasters Promo [Polydor RS2009001]
2011 The Singles 1971-2006 Sampler [Polydor RSBOX1]
2012 Grrr! [ABKCO 3710914]
Singles:
1991 Jumpin Jack Flash [Sony 657597 2]
1994 Love Is Strong [Virgin VSCDT 1503]
Внимание. Раздача 04.12.2012 кардинально переработана, добавлен новый материал.

Studio Albums
[b]Тип рипа:
image+.cue
Продолжительность: 32:46
Источник: Ironbelly
Трэклист:
1. (Get Your Kicks On) Route 66 (2:21)
2. I Just Want To Make Love To You (2:17)
3. Honest I Do (2:09)
4. I Need You Baby (3:33)
5. Now I've Got A Witness (Like Uncle Phil And Uncle Gene) (2:29)
6. Little By Little (2:39)
7. I'm A King Bee (2:34)
8. Carol (2:32)
9. Tell Me (You're Coming Back) (4:05)
10. Can I Get A Witness (2:55)
11. You Can Make It If You Try (2:00)
12. Walking The Dog (3:09)[/b]
Exact Audio Copy V1.0 beta 3 from 29. August 2011

EAC extraction logfile from 19. October 2012, 16:59

The Rolling Stones / The Rolling Stones (2nd West German Pressing)

Used drive : HL-DT-STDVD+-RW GH50N Adapter: 0 ID: 1

Read mode : Secure
Utilize accurate stream : Yes
Defeat audio cache : Yes
Make use of C2 pointers : No

Read offset correction : 667
Overread into Lead-In and Lead-Out : No
Fill up missing offset samples with silence : Yes
Delete leading and trailing silent blocks : No
Null samples used in CRC calculations : Yes
Used interface : Native Win32 interface for Win NT & 2000

Used output format : User Defined Encoder
Selected bitrate : 768 kBit/s
Quality : High
Add ID3 tag : Yes
Command line compressor : C:\Program Files (x86)\Exact Audio Copy\FLAC\FLAC.EXE
Additional command line options : -V -8 -T "Date=%year%" -T "Genre=%genre%" %source%

TOC of the extracted CD

Track | Start | Length | Start sector | End sector
---------------------------------------------------------
1 | 0:00.32 | 2:23.08 | 32 | 10764
2 | 2:23.40 | 2:18.60 | 10765 | 21174
3 | 4:42.25 | 2:11.15 | 21175 | 31014
4 | 6:53.40 | 3:35.27 | 31015 | 47166
5 | 10:28.67 | 2:31.00 | 47167 | 58491
6 | 12:59.67 | 2:40.20 | 58492 | 70511
7 | 15:40.12 | 2:36.38 | 70512 | 82249
8 | 18:16.50 | 2:34.12 | 82250 | 93811
9 | 20:50.62 | 4:09.13 | 93812 | 112499
10 | 25:00.00 | 2:57.02 | 112500 | 125776
11 | 27:57.02 | 2:02.48 | 125777 | 134974
12 | 29:59.50 | 3:08.65 | 134975 | 149139

Range status and errors

Selected range

Filename C:\111\London\TRS (2nd West German Pressing)\The Rolling Stones - The Rolling Stones (2nd West German Pressing).wav

Peak level 87.7 %
Extraction speed 2.8 X
Range quality 100.0 %
Test CRC 430EB809
Copy CRC 430EB809
Copy OK

No errors occurred

AccurateRip summary

Track 1 accurately ripped (confidence 14) [1A3D2C69] (AR v1)
Track 2 accurately ripped (confidence 14) [6AAD7D26] (AR v1)
Track 3 accurately ripped (confidence 14) [2F05CC42] (AR v1)
Track 4 accurately ripped (confidence 14) [AF29809C] (AR v1)
Track 5 accurately ripped (confidence 14) [B6F157AB] (AR v1)
Track 6 accurately ripped (confidence 14) [AB4E9F8C] (AR v1)
Track 7 accurately ripped (confidence 15) [781434FB] (AR v1)
Track 8 accurately ripped (confidence 14) [A82814AF] (AR v1)
Track 9 accurately ripped (confidence 14) [E3B199E8] (AR v1)
Track 10 accurately ripped (confidence 14) [1B3D2E8C] (AR v1)
Track 11 accurately ripped (confidence 14) [6720D562] (AR v1)
Track 12 accurately ripped (confidence 14) [01B70714] (AR v1)

All tracks accurately ripped

End of status report

==== Log checksum 46B82C80E75FAA9DCD9E538BBC3B13259B49BAC607C1FBC4BE16755B80B82C24 ====
Тип рипа: image+.cue
Продолжительность: 33:25
Источник: dafnaplus
Трэклист:
1. Route 66 (2:25)
2. I Just Want To Make Love To You (2:21)
3. Honest I Do (2:14)
4. Mona (I Need You Baby) (3:38)
5. Now I've Got A Witness (2:34)
6. Little By Little (2:44)
7. I'm A King Bee (2:39)
8. Carol (2:38)
9. Tell Me (3:52)
10. Can I Get A Witness (2:59)
11. You Can Make It If You Try (2:06)
12. Walking The Dog (3:09)
Exact Audio Copy V0.99 prebeta 5 from 4. May 2009

EAC extraction logfile from 3. April 2010, 23:00

Rolling Stones, The / The Rolling Stones

Used drive : TSSTcorpCD/DVDW SH-S183A Adapter: 1 ID: 0

Read mode : Secure
Utilize accurate stream : Yes
Defeat audio cache : Yes
Make use of C2 pointers : No

Read offset correction : 6
Overread into Lead-In and Lead-Out : No
Fill up missing offset samples with silence : Yes
Delete leading and trailing silent blocks : No
Null samples used in CRC calculations : Yes
Used interface : Installed external ASPI interface

Used output format : User Defined Encoder
Selected bitrate : 1024 kBit/s
Quality : High
Add ID3 tag : No
Command line compressor : C:\Program Files\Exact Audio Copy\Flac\flac.exe
Additional command line options : -8 -V -T "ARTIST=%a" -T "TITLE=%t" -T "ALBUM=%g" -T "DATE=%y" -T "TRACKNUMBER=%n" -T "TOTALTRACKS=%x" -T "GENRE=%m" -T "ALBUM ARTIST=%v" -T "ALBUMARTIST=%v" -T "COMMENT=EAC V0.99 prebeta 5, Secure Mode, AccurateRip, FLAC -8

TOC of the extracted CD

Track | Start | Length | Start sector | End sector
---------------------------------------------------------
1 | 0:00.33 | 2:25.10 | 33 | 10917
2 | 2:25.43 | 2:21.35 | 10918 | 21527
3 | 4:47.03 | 2:14.02 | 21528 | 31579
4 | 7:01.05 | 3:38.15 | 31580 | 47944
5 | 10:39.20 | 2:34.55 | 47945 | 59549
6 | 13:14.00 | 2:44.28 | 59550 | 71877
7 | 15:58.28 | 2:39.20 | 71878 | 83822
8 | 18:37.48 | 2:38.22 | 83823 | 95694
9 | 21:15.70 | 3:52.40 | 95695 | 113134
10 | 25:08.35 | 2:59.35 | 113135 | 126594
11 | 28:07.70 | 2:06.43 | 126595 | 136087
12 | 30:14.38 | 3:10.00 | 136088 | 150337

Range status and errors

Selected range

Filename J:\1964 Rolling Stones-The Rolling Stones\Cd\Rolling Stones, The - The Rolling Stones.wav

Peak level 88.3 %
Range quality 100.0 %
Test CRC 560F4860
Copy CRC 560F4860
Copy OK

No errors occurred

AccurateRip summary

Track 1 accurately ripped (confidence 18) [BCF8F2B9]
Track 2 accurately ripped (confidence 18) [F802AABC]
Track 3 accurately ripped (confidence 18) [229E8094]
Track 4 accurately ripped (confidence 18) [821153BE]
Track 5 accurately ripped (confidence 18) [76057D2E]
Track 6 accurately ripped (confidence 18) [61448315]
Track 7 accurately ripped (confidence 18) [CFDBFDE5]
Track 8 accurately ripped (confidence 18) [396AE136]
Track 9 accurately ripped (confidence 18) [CD75B9A6]
Track 10 accurately ripped (confidence 18) [88A2E182]
Track 11 accurately ripped (confidence 18) [4239D681]
Track 12 accurately ripped (confidence 18) [92C2D347]

All tracks accurately ripped

End of status report


Released:
16 April 1964
Recorded: 3 January – 25 February 1964, Regent Studios, London
Label: Decca

The Rolling Stones:
Mick Jagger – lead and backing vocals, harmonica, percussion
Keith Richards – guitar, backing vocals
Brian Jones – guitar, harmonica, percussion, backing vocals
Charlie Watts – drums, percussion
Bill Wyman – bass guitar, backing vocals

Additional musicians:
Gene Pitney – piano on "Little by Little"
Phil Spector – maracas on "Little by Little"
Ian Stewart – organ and piano
Тип рипа: tracks+.cue
Продолжительность: 31:12
Источник: fdoortiz
Трэклист:
1. Not Fade Away (1:48)
2. Route 66 (2:21)
3. I Just Want to Make Love to You (2:18)
4. Honest I Do (2:10)
5. Now I've Got a Witness (2:32)
6. Little by Little (2:40)
7. I'm a King Bee (2:37)
8. Carol (2:34)
9. Tell Me (4:05)
10. Can I Get a Witness (2:56)
11. You Can Make It If You Try (2:02)
12. Walking the Dog (3:09)
Exact Audio Copy V0.99 prebeta 5 from 4. May 2009

EAC extraction logfile from 3. January 2011, 3:08

The Rolling Stones / England's Newest Hit Makers

Used drive : HL-DT-STDVDRAM GH22NS40 Adapter: 1 ID: 1

Read mode : Secure
Utilize accurate stream : Yes
Defeat audio cache : Yes
Make use of C2 pointers : No

Read offset correction : 667
Overread into Lead-In and Lead-Out : No
Fill up missing offset samples with silence : Yes
Delete leading and trailing silent blocks : No
Null samples used in CRC calculations : Yes
Used interface : Native Win32 interface for Win NT & 2000
Gap handling : Appended to previous track

Used output format : User Defined Encoder
Selected bitrate : 128 kBit/s
Quality : High
Add ID3 tag : No
Command line compressor : C:\Program Files\Exact Audio Copy\Flac\flac.exe
Additional command line options : -V -8 -T "artist=%a" -T "title=%t" -T "album=%g" -T "date=%y" -T "tracknumber=%n" -T "genre=%m" %s

TOC of the extracted CD

Track | Start | Length | Start sector | End sector
---------------------------------------------------------
1 | 0:00.00 | 1:48.52 | 0 | 8151
2 | 1:48.52 | 2:21.65 | 8152 | 18791
3 | 4:10.42 | 2:18.53 | 18792 | 29194
4 | 6:29.20 | 2:10.67 | 29195 | 39011
5 | 8:40.12 | 2:32.25 | 39012 | 50436
6 | 11:12.37 | 2:40.43 | 50437 | 62479
7 | 13:53.05 | 2:37.22 | 62480 | 74276
8 | 16:30.27 | 2:34.50 | 74277 | 85876
9 | 19:05.02 | 4:05.65 | 85877 | 104316
10 | 23:10.67 | 2:56.53 | 104317 | 117569
11 | 26:07.45 | 2:02.40 | 117570 | 126759
12 | 28:10.10 | 3:09.15 | 126760 | 140949

Track 1

Filename C:\Music\The Rolling Stones - 1964 - England's Newest Hit Makers [FLAC]\01 Not Fade Away.wav

Pre-gap length 0:00:02.00

Peak level 90.9 %
Track quality 100.0 %
Test CRC 760D8538
Copy CRC 760D8538
Accurately ripped (confidence 40) [1B32A4DE]
Copy OK

Track 2

Filename C:\Music\The Rolling Stones - 1964 - England's Newest Hit Makers [FLAC]\02 Route 66.wav

Pre-gap length 0:00:00.96

Peak level 77.1 %
Track quality 100.0 %
Test CRC 8C48E201
Copy CRC 8C48E201
Accurately ripped (confidence 39) [EA2E53B5]
Copy OK

Track 3

Filename C:\Music\The Rolling Stones - 1964 - England's Newest Hit Makers [FLAC]\03 I Just Want to Make Love to You.wav

Pre-gap length 0:00:01.60

Peak level 81.4 %
Track quality 100.0 %
Test CRC 1982BB11
Copy CRC 1982BB11
Accurately ripped (confidence 39) [59EF3FE0]
Copy OK

Track 4

Filename C:\Music\The Rolling Stones - 1964 - England's Newest Hit Makers [FLAC]\04 Honest I Do.wav

Pre-gap length 0:00:01.00

Peak level 82.7 %
Track quality 100.0 %
Test CRC E84FE77E
Copy CRC E84FE77E
Accurately ripped (confidence 39) [CE30AEEA]
Copy OK

Track 5

Filename C:\Music\The Rolling Stones - 1964 - England's Newest Hit Makers [FLAC]\05 Now I've Got a Witness.wav

Pre-gap length 0:00:01.06

Peak level 89.7 %
Track quality 100.0 %
Test CRC F6DDE0DD
Copy CRC F6DDE0DD
Accurately ripped (confidence 39) [22BA4D1E]
Copy OK

Track 6

Filename C:\Music\The Rolling Stones - 1964 - England's Newest Hit Makers [FLAC]\06 Little by Little.wav

Pre-gap length 0:00:00.49

Peak level 93.5 %
Track quality 100.0 %
Test CRC 6B027A08
Copy CRC 6B027A08
Accurately ripped (confidence 39) [20F31299]
Copy OK

Track 7

Filename C:\Music\The Rolling Stones - 1964 - England's Newest Hit Makers [FLAC]\07 I'm a King Bee.wav

Pre-gap length 0:00:00.84

Peak level 85.4 %
Track quality 100.0 %
Test CRC 2A7DEDE7
Copy CRC 2A7DEDE7
Accurately ripped (confidence 39) [BC5C57E6]
Copy OK

Track 8

Filename C:\Music\The Rolling Stones - 1964 - England's Newest Hit Makers [FLAC]\08 Carol.wav

Pre-gap length 0:00:01.13

Peak level 98.3 %
Track quality 100.0 %
Test CRC 00A046FD
Copy CRC 00A046FD
Accurately ripped (confidence 39) [9E10C647]
Copy OK

Track 9

Filename C:\Music\The Rolling Stones - 1964 - England's Newest Hit Makers [FLAC]\09 Tell Me.wav

Pre-gap length 0:00:00.60

Peak level 99.8 %
Track quality 100.0 %
Test CRC E6633318
Copy CRC E6633318
Accurately ripped (confidence 40) [C80188D9]
Copy OK

Track 10

Filename C:\Music\The Rolling Stones - 1964 - England's Newest Hit Makers [FLAC]\10 Can I Get a Witness.wav

Pre-gap length 0:00:00.56

Peak level 98.4 %
Track quality 100.0 %
Test CRC 81E3D626
Copy CRC 81E3D626
Accurately ripped (confidence 40) [1D4EEA2E]
Copy OK

Track 11

Filename C:\Music\The Rolling Stones - 1964 - England's Newest Hit Makers [FLAC]\11 You Can Make It If You Try.wav

Pre-gap length 0:00:00.60

Peak level 88.8 %
Track quality 99.9 %
Test CRC 63BC3E5D
Copy CRC 63BC3E5D
Accurately ripped (confidence 39) [1B85EFDD]
Copy OK

Track 12

Filename C:\Music\The Rolling Stones - 1964 - England's Newest Hit Makers [FLAC]\12 Walking the Dog.wav

Pre-gap length 0:00:00.84

Peak level 99.8 %
Track quality 100.0 %
Test CRC 7B20FC63
Copy CRC 7B20FC63
Accurately ripped (confidence 38) [9325AE0E]
Copy OK

All tracks accurately ripped

No errors occurred

End of status report
REM GENRE Rock
REM DATE 1964
REM DISCID 9B07570C
REM COMMENT "ExactAudioCopy v0.99pb5"
FILE "01 Not Fade Away.wav" WAVE
TRACK 01 AUDIO
INDEX 01 00:00:00
TRACK 02 AUDIO
INDEX 00 01:47:55
FILE "02 Route 66.wav" WAVE
INDEX 01 00:00:00
TRACK 03 AUDIO
INDEX 00 02:20:20
FILE "03 I Just Want to Make Love to You.wav" WAVE
INDEX 01 00:00:00
TRACK 04 AUDIO
INDEX 00 02:17:53
FILE "04 Honest I Do.wav" WAVE
INDEX 01 00:00:00
TRACK 05 AUDIO
INDEX 00 02:09:62
FILE "05 Now I've Got a Witness.wav" WAVE
INDEX 01 00:00:00
TRACK 06 AUDIO
INDEX 00 02:31:63
FILE "06 Little by Little.wav" WAVE
INDEX 01 00:00:00
TRACK 07 AUDIO
INDEX 00 02:39:55
FILE "07 I'm a King Bee.wav" WAVE
INDEX 01 00:00:00
TRACK 08 AUDIO
INDEX 00 02:36:12
FILE "08 Carol.wav" WAVE
INDEX 01 00:00:00
TRACK 09 AUDIO
INDEX 00 02:34:05
FILE "09 Tell Me.wav" WAVE
INDEX 01 00:00:00
TRACK 10 AUDIO
INDEX 00 04:05:23
FILE "10 Can I Get a Witness.wav" WAVE
INDEX 01 00:00:00
TRACK 11 AUDIO
INDEX 00 02:56:08
FILE "11 You Can Make It If You Try.wav" WAVE
INDEX 01 00:00:00
TRACK 12 AUDIO
INDEX 00 02:01:52
FILE "12 Walking the Dog.wav" WAVE
INDEX 01 00:00:00
Тип рипа: image+.cue
Продолжительность: 31:19
Источник: WEB
Трэклист:
1. Not Fade Away (1:48)
2. Route 66 (2:22)
3. I Just Want To Make Love To You (2:19)
4. Honest I Do (2:11)
5. Now I've Got A Witness (2:32)
6. Little By Little (2:41)
7. I'm A King Bee (2:37)
8. Carol (2:35)
9. Tell Me (4:05)
10. Can I Get A Witness (2:57)
11. You Can Make It If You Try (2:03)
12. Walking The Dog (3:09)
Exact Audio Copy V0.99 prebeta 4 from 23. January 2008

Отчёт EAC об извлечении, выполненном 15. марта 2010, 12:36

The Rolling Stones / England's Newest Hit Makers

Дисковод: HL-DT-STDVDRAM GSA-H42L Adapter: 2 ID: 1

Режим чтения : Достоверность
Использование точного потока : Да
Отключение кэша аудио : Да
Использование указателей C2 : Нет

Коррекция смещения при чтении : 667
Способность читать области Lead-in и Lead-out : Нет
Заполнение пропущенных сэмплов тишиной : Да
Удаление блоков с тишиной в начале и конце : Нет
При вычислениях CRC использовались нулевые сэмплы : Да
Интерфейс : Установленный внешний ASPI-интерфейс

Выходной формат : Пользовательский кодировщик
Выбранный битрейт : 1024 kBit/s
Качество : Высокий
Добавление ID3-тэга : Нет
Утилита сжатия : C:\Program Files\Exact Audio Copy\FLAC\FLAC.EXE
Дополнительные параметры : -6 -V -T "ARTIST=%a" -T "TITLE=%t" -T "ALBUM=%g" -T "DATE=%y" -T "TRACKNUMBER=%n" -T "GENRE=%m" -T "COMMENT=%e" %s -o %d

TOC извлечённого CD

Трек | Старт | Длительность | Начальный сектор | Конечный сектор
---------------------------------------------------------------------
1 | 0:00.00 | 1:48.52 | 0 | 8151
2 | 1:48.52 | 2:21.65 | 8152 | 18791
3 | 4:10.42 | 2:18.53 | 18792 | 29194
4 | 6:29.20 | 2:10.67 | 29195 | 39011
5 | 8:40.12 | 2:32.25 | 39012 | 50436
6 | 11:12.37 | 2:40.43 | 50437 | 62479
7 | 13:53.05 | 2:37.22 | 62480 | 74276
8 | 16:30.27 | 2:34.50 | 74277 | 85876
9 | 19:05.02 | 4:05.65 | 85877 | 104316
10 | 23:10.67 | 2:56.53 | 104317 | 117569
11 | 26:07.45 | 2:02.40 | 117570 | 126759
12 | 28:10.10 | 3:09.15 | 126760 | 140949

Характеристики диапазона извлечения и сообщения об ошибках

Выбранный диапазон

Имя файла K:\SOUNDS\R-n-R\THE ROLLING STONES\Albums\1964 _ England's Newest Hit Makers (2006 Japan MiniLP remastered)\The The Rolling Stones - England's Newest Hit Makers.wav

Пиковый уровень 99.8 %
Качество диапазона 100.0 %
CRC копии 53E56046
Копирование... OK

Ошибок не произошло

AccurateRip: сводка

Трек 1 точное извлечение (доверие 5) [6945AD42]
Трек 2 точное извлечение (доверие 3) [6AF699F4]
Трек 3 точное извлечение (доверие 3) [862F9FAC]
Трек 4 точное извлечение (доверие 3) [34D6CD63]
Трек 5 точное извлечение (доверие 3) [6D058502]
Трек 6 точное извлечение (доверие 3) [5BAFC0D4]
Трек 7 точное извлечение (доверие 3) [161D9ECD]
Трек 8 точное извлечение (доверие 3) [B519915D]
Трек 9 точное извлечение (доверие 3) [5E2AA438]
Трек 10 точное извлечение (доверие 3) [EE726ACD]
Трек 11 точное извлечение (доверие 3) [31FAEFD5]
Трек 12 точное извлечение (доверие 3) [FB5ECEC8]

Все треки извлечены точно

Конец отчёта


Released:
30 May 1964
Recorded: 3 January – 25 February 1964, Regent Studios, London
Label: London

The Rolling Stones:
Mick Jagger – lead and backing vocals, harmonica, percussion
Keith Richards – guitar, backing vocals
Brian Jones – guitar, harmonica, percussion, backing vocals
Charlie Watts – drums, percussion
Bill Wyman – bass guitar, backing vocals

Additional musicians:
Gene Pitney – piano on "Little by Little"
Phil Spector – maracas on "Little by Little"
Ian Stewart – organ and piano
Тип рипа: image+.cue
Продолжительность: 30:33
Источник: Ironbelly
Трэклист:
1. Around And Around (3:05)
2. Confessin' The Blues (2:47)
3. Empty Heart (2:36)
4. Time Is On My Side (2:51)
5. Good Times, Bad Times (2:32)
6. It's All Over Now (3:26)
7. 2120 South Michigan Avenue (2:07)
8. Under The Boardwalk (2:45)
9. Congratulations (2:27)
10. Grown Up Wrong (2:05)
11. If You Need Me (2:02)
12. Susie Q (1:50)
Exact Audio Copy V1.0 beta 3 from 29. August 2011

EAC extraction logfile from 7. September 2012, 16:49

The Rolling Stones / 12 x 5 (5th West German Pressing)

Used drive : HL-DT-STDVD+-RW GH50N Adapter: 0 ID: 1

Read mode : Secure
Utilize accurate stream : Yes
Defeat audio cache : Yes
Make use of C2 pointers : No

Read offset correction : 667
Overread into Lead-In and Lead-Out : No
Fill up missing offset samples with silence : Yes
Delete leading and trailing silent blocks : No
Null samples used in CRC calculations : Yes
Used interface : Native Win32 interface for Win NT & 2000

Used output format : User Defined Encoder
Selected bitrate : 768 kBit/s
Quality : High
Add ID3 tag : Yes
Command line compressor : C:\Program Files (x86)\Exact Audio Copy\FLAC\FLAC.EXE
Additional command line options : -V -8 -T "Date=%year%" -T "Genre=%genre%" %source%

TOC of the extracted CD

Track | Start | Length | Start sector | End sector
---------------------------------------------------------
1 | 0:00.32 | 3:09.23 | 32 | 14229
2 | 3:09.55 | 2:51.30 | 14230 | 27084
3 | 6:01.10 | 2:40.00 | 27085 | 39084
4 | 8:41.10 | 2:55.00 | 39085 | 52209
5 | 11:36.10 | 2:36.12 | 52210 | 63921
6 | 14:12.22 | 3:30.28 | 63922 | 79699
7 | 17:42.50 | 2:10.57 | 79700 | 89506
8 | 19:53.32 | 2:48.68 | 89507 | 102174
9 | 22:42.25 | 2:30.45 | 102175 | 113469
10 | 25:12.70 | 2:08.17 | 113470 | 123086
11 | 27:21.12 | 2:06.25 | 123087 | 132561
12 | 29:27.37 | 1:49.40 | 132562 | 140776

Range status and errors

Selected range

Filename C:\111\London\12x5 (5th West Germang Pressing)\The Rolling Stones - 12 x 5 (5th West German Pressing).wav

Peak level 64.6 %
Extraction speed 2.8 X
Range quality 100.0 %
Test CRC 32943E44
Copy CRC 32943E44
Copy OK

No errors occurred

AccurateRip summary

Track 1 accurately ripped (confidence 8) [1556907F] (AR v1)
Track 2 accurately ripped (confidence 8) [A9810A14] (AR v1)
Track 3 accurately ripped (confidence 8) [C93D46E6] (AR v1)
Track 4 accurately ripped (confidence 8) [47BC682F] (AR v1)
Track 5 accurately ripped (confidence 8) [BBB9016C] (AR v1)
Track 6 accurately ripped (confidence 8) [F84F4DD5] (AR v1)
Track 7 accurately ripped (confidence 8) [DAF53299] (AR v1)
Track 8 accurately ripped (confidence 8) [10A3B754] (AR v1)
Track 9 accurately ripped (confidence 8) [67843D55] (AR v1)
Track 10 accurately ripped (confidence 8) [6F36854E] (AR v1)
Track 11 accurately ripped (confidence 8) [429FB52B] (AR v1)
Track 12 accurately ripped (confidence 7) [F3DDB974] (AR v1)

All tracks accurately ripped

End of status report

==== Log checksum 1084E10A3207F41C9E4990D900814A13AC7B2E94E63F598C6056EFC004D674F2 ====
Тип рипа: image+.cue
Продолжительность: 31:19
Источник: dafnaplus
Трэклист:
1. Around And Around (3:09)
2. Confessin' The Blues (2:51)
3. Empty Heart (2:40)
4. Time Is On My Side (2:55)
5. Good Times, Bad Times (2:36)
6. It's All Over Now (3:30)
7. 2120 South Michigan Avenue (2:10)
8. Under The Boardwalk (2:49)
9. Congratulations (2:30)
10. Grown Up Wrong (2:08)
11. If You Need Me (2:06)
12. Susie Q (1:49)
Exact Audio Copy V0.99 prebeta 5 from 4. May 2009

EAC extraction logfile from 4. April 2010, 0:07

The Rolling Stones / 12x5

Used drive : TSSTcorpCD/DVDW SH-S183A Adapter: 1 ID: 0

Read mode : Secure
Utilize accurate stream : Yes
Defeat audio cache : Yes
Make use of C2 pointers : No

Read offset correction : 6
Overread into Lead-In and Lead-Out : No
Fill up missing offset samples with silence : Yes
Delete leading and trailing silent blocks : No
Null samples used in CRC calculations : Yes
Used interface : Installed external ASPI interface

Used output format : User Defined Encoder
Selected bitrate : 1024 kBit/s
Quality : High
Add ID3 tag : No
Command line compressor : C:\Program Files\Exact Audio Copy\Flac\flac.exe
Additional command line options : -8 -V -T "ARTIST=%a" -T "TITLE=%t" -T "ALBUM=%g" -T "DATE=%y" -T "TRACKNUMBER=%n" -T "TOTALTRACKS=%x" -T "GENRE=%m" -T "ALBUM ARTIST=%v" -T "ALBUMARTIST=%v" -T "COMMENT=EAC V0.99 prebeta 5, Secure Mode, AccurateRip, FLAC -8

TOC of the extracted CD

Track | Start | Length | Start sector | End sector
---------------------------------------------------------
1 | 0:00.32 | 3:09.08 | 32 | 14214
2 | 3:09.40 | 2:51.50 | 14215 | 27089
3 | 6:01.15 | 2:40.07 | 27090 | 39096
4 | 8:41.22 | 2:55.20 | 39097 | 52241
5 | 11:36.42 | 2:36.30 | 52242 | 63971
6 | 14:12.72 | 3:30.48 | 63972 | 79769
7 | 17:43.45 | 2:10.70 | 79770 | 89589
8 | 19:54.40 | 2:49.10 | 89590 | 102274
9 | 22:43.50 | 2:30.60 | 102275 | 113584
10 | 25:14.35 | 2:08.25 | 113585 | 123209
11 | 27:22.60 | 2:06.37 | 123210 | 132696
12 | 29:29.22 | 1:49.70 | 132697 | 140941

Range status and errors

Selected range

Filename J:\1964 Rolling Stones-12x5\Cd\The Rolling Stones - 12x5.wav

Peak level 84.3 %
Range quality 100.0 %
Test CRC 3AFFD2A7
Copy CRC 3AFFD2A7
Copy OK

No errors occurred

AccurateRip summary

Track 1 accurately ripped (confidence 3) [9F7C1780]
Track 2 accurately ripped (confidence 4) [26F3F4C7]
Track 3 accurately ripped (confidence 4) [036A02CF]
Track 4 accurately ripped (confidence 4) [0FEA83DA]
Track 5 accurately ripped (confidence 3) [1980025B]
Track 6 accurately ripped (confidence 3) [7B64BED1]
Track 7 accurately ripped (confidence 4) [EA7A1211]
Track 8 accurately ripped (confidence 4) [84A22891]
Track 9 accurately ripped (confidence 3) [912F500A]
Track 10 accurately ripped (confidence 4) [FB0A3574]
Track 11 accurately ripped (confidence 3) [CFAC5D4C]
Track 12 accurately ripped (confidence 3) [C1D42FA9]

All tracks accurately ripped

End of status report
Тип рипа: image+.cue
Продолжительность: 32:18
Источник: Ironbelly
Трэклист:
1. Around And Around (3:04)
2. Confessin' The Blues (2:48)
3. Empty Heart (2:38)
4. Time Is On My Side (2:54)
5. Good Times, Bad Times (2:31)
6. It's All Over Now (3:27)
7. 2120 South Michigan Avenue (3:39)
8. Under The Boardwalk (2:47)
9. Congradulations (2:29)
10. Grown Up Wrong (2:06)
11. If You Need Me (2:05)
12. Susie Q (1:50)
Exact Audio Copy V1.0 beta 3 from 29. August 2011

EAC extraction logfile from 9. November 2012, 16:27

The Rolling Stones / 12 X 5 (SACD-hybrid)

Used drive : HL-DT-STDVD+-RW GH50N Adapter: 0 ID: 1

Read mode : Secure
Utilize accurate stream : Yes
Defeat audio cache : Yes
Make use of C2 pointers : No

Read offset correction : 667
Overread into Lead-In and Lead-Out : No
Fill up missing offset samples with silence : Yes
Delete leading and trailing silent blocks : No
Null samples used in CRC calculations : Yes
Used interface : Native Win32 interface for Win NT & 2000

Used output format : User Defined Encoder
Selected bitrate : 768 kBit/s
Quality : High
Add ID3 tag : Yes
Command line compressor : C:\Program Files (x86)\Exact Audio Copy\FLAC\FLAC.EXE
Additional command line options : -V -8 -T "Date=%year%" -T "Genre=%genre%" %source%

TOC of the extracted CD

Track | Start | Length | Start sector | End sector
---------------------------------------------------------
1 | 0:00.00 | 3:03.62 | 0 | 13786
2 | 3:03.62 | 2:48.63 | 13787 | 26449
3 | 5:52.50 | 2:38.57 | 26450 | 38356
4 | 8:31.32 | 2:54.35 | 38357 | 51441
5 | 11:25.67 | 2:31.55 | 51442 | 62821
6 | 13:57.47 | 3:27.38 | 62822 | 78384
7 | 17:25.10 | 3:39.60 | 78385 | 94869
8 | 21:04.70 | 2:47.22 | 94870 | 107416
9 | 23:52.17 | 2:29.50 | 107417 | 118641
10 | 26:21.67 | 2:06.33 | 118642 | 128124
11 | 28:28.25 | 2:05.25 | 128125 | 137524
12 | 30:33.50 | 1:51.07 | 137525 | 145856

Range status and errors

Selected range

Filename C:\111\SACD\1964 - 12 x 5\The Rolling Stones - 12 X 5 (SACD-hybrid).wav

Peak level 99.8 %
Extraction speed 2.7 X
Range quality 100.0 %
Test CRC 520B53C6
Copy CRC 520B53C6
Copy OK

No errors occurred

AccurateRip summary

Track 1 accurately ripped (confidence 5) [9900E185] (AR v2)
Track 2 accurately ripped (confidence 5) [EB72A3CE] (AR v2)
Track 3 accurately ripped (confidence 5) [01F3E579] (AR v2)
Track 4 accurately ripped (confidence 5) [4D352E49] (AR v2)
Track 5 accurately ripped (confidence 5) [728E5B7C] (AR v2)
Track 6 accurately ripped (confidence 5) [810B4218] (AR v2)
Track 7 accurately ripped (confidence 5) [8509597D] (AR v2)
Track 8 accurately ripped (confidence 5) [C98FFD89] (AR v2)
Track 9 accurately ripped (confidence 5) [46DD950B] (AR v2)
Track 10 accurately ripped (confidence 4) [966449DF] (AR v2)
Track 11 accurately ripped (confidence 4) [B362F34E] (AR v2)
Track 12 accurately ripped (confidence 4) [3C73BF7E] (AR v2)

All tracks accurately ripped

End of status report

==== Log checksum E22B595795E0F79610A9FCB0C13E1462E489121EC7EA715428E540D5F2309ED3 ====
Тип рипа: tracks+.cue
Продолжительность: 32:18
Источник: ruskaval
Трэклист:
1. Around And Around (3:04)
2. Confessin' The Blues (2:48)
3. Empty Heart (2:38)
4. Time Is On My Side (2:54)
5. Good Times, Bad Times (2:31)
6. It's All Over Now (3:27)
7. 2120 South Michigan Avenue (3:39)
8. Under The Boardwalk (2:47)
9. Congradulations (2:29)
10. Grown Up Wrong (2:06)
11. If You Need Me (2:05)
12. Susie Q (1:50)
EAC extraction logfile from 10. November 2008, 21:09 for CD
The Rolling Stones / 12 x 5

Used drive : PIONEER DVD-RW DVR-111L Adapter: 0 ID: 1
Read mode : Secure with NO C2, accurate stream, disable cache
Read offset correction : 48
Overread into Lead-In and Lead-Out : No

Used output format : C:\Program Files\FLAC\flac.exe (User Defined Encoder)
128 kBit/s
Additional command line options : -8 -V -T "ARTIST=%a" -T "TITLE=%t" -T "ALBUM=%g" -T "DATE=%y" -T "TRACKNUMBER=%n" -T "GENRE=%m" -T "COMMENT=EAC FLAC -8" %s

Other options :
Fill up missing offset samples with silence : Yes
Delete leading and trailing silent blocks : No
Installed external ASPI interface

Track 1
Filename C:\The Rolling Stones - 12x5 (1964) (Japan Mini LP Remastered 2006) [UICY-93014]\01 - Around And Around.wav

Pre-gap length 0:00:02.00

Peak level 99.8 %
Track quality 100.0 %
Test CRC 7114AFE3
Copy CRC 7114AFE3
Copy OK

Track 2
Filename C:\The Rolling Stones - 12x5 (1964) (Japan Mini LP Remastered 2006) [UICY-93014]\02 - Confessin' The Blues.wav

Pre-gap length 0:00:00.62

Peak level 99.8 %
Track quality 99.9 %
Test CRC 65DBBDA0
Copy CRC 65DBBDA0
Copy OK

Track 3
Filename C:\The Rolling Stones - 12x5 (1964) (Japan Mini LP Remastered 2006) [UICY-93014]\03 - Empty Heart.wav

Pre-gap length 0:00:01.30

Peak level 99.8 %
Track quality 100.0 %
Test CRC F33F0468
Copy CRC F33F0468
Copy OK

Track 4
Filename C:\The Rolling Stones - 12x5 (1964) (Japan Mini LP Remastered 2006) [UICY-93014]\04 - Time Is On My Side.wav

Pre-gap length 0:00:01.60

Peak level 87.6 %
Track quality 100.0 %
Test CRC 92AD0002
Copy CRC 92AD0002
Copy OK

Track 5
Filename C:\The Rolling Stones - 12x5 (1964) (Japan Mini LP Remastered 2006) [UICY-93014]\05 - Good Times, Bad Times.wav

Pre-gap length 0:00:01.55

Peak level 96.6 %
Track quality 99.9 %
Test CRC 9066BD2A
Copy CRC 9066BD2A
Copy OK

Track 6
Filename C:\The Rolling Stones - 12x5 (1964) (Japan Mini LP Remastered 2006) [UICY-93014]\06 - It's All Over Now.wav

Pre-gap length 0:00:01.40

Peak level 99.8 %
Track quality 100.0 %
Test CRC 44639E0A
Copy CRC 44639E0A
Copy OK

Track 7
Filename C:\The Rolling Stones - 12x5 (1964) (Japan Mini LP Remastered 2006) [UICY-93014]\07 - 2120 South Michigan Avenue.wav

Pre-gap length 0:00:01.02

Peak level 99.8 %
Track quality 99.9 %
Test CRC 6695CAA5
Copy CRC 6695CAA5
Copy OK

Track 8
Filename C:\The Rolling Stones - 12x5 (1964) (Japan Mini LP Remastered 2006) [UICY-93014]\08 - Under The Boardwalk.wav

Pre-gap length 0:00:01.22

Peak level 81.1 %
Track quality 100.0 %
Test CRC B1E8AE13
Copy CRC B1E8AE13
Copy OK

Track 9
Filename C:\The Rolling Stones - 12x5 (1964) (Japan Mini LP Remastered 2006) [UICY-93014]\09 - Congradulations.wav

Pre-gap length 0:00:00.66

Peak level 94.3 %
Track quality 100.0 %
Test CRC 7A7633D7
Copy CRC 7A7633D7
Copy OK

Track 10
Filename C:\The Rolling Stones - 12x5 (1964) (Japan Mini LP Remastered 2006) [UICY-93014]\10 - Grown Up Wrong.wav

Pre-gap length 0:00:00.59

Peak level 85.7 %
Track quality 100.0 %
Test CRC FA43145F
Copy CRC FA43145F
Copy OK

Track 11
Filename C:\The Rolling Stones - 12x5 (1964) (Japan Mini LP Remastered 2006) [UICY-93014]\11 - If You Need Me.wav

Pre-gap length 0:00:00.57

Peak level 99.8 %
Track quality 100.0 %
Test CRC A875A88A
Copy CRC A875A88A
Copy OK

Track 12
Filename C:\The Rolling Stones - 12x5 (1964) (Japan Mini LP Remastered 2006) [UICY-93014]\12 - Susie Q.wav

Pre-gap length 0:00:01.09

Peak level 88.2 %
Track quality 100.0 %
Test CRC AFF123C3
Copy CRC AFF123C3
Copy OK

No errors occured

End of status report
REM GENRE Rock
REM DATE 1964
REM DISCID A207980C
REM COMMENT "ExactAudioCopy v0.95b3"
PERFORMER "The Rolling Stones"
TITLE "12 x 5"
FILE "01 - Around And Around.wav" WAVE
TRACK 01 AUDIO
TITLE "Around And Around"
PERFORMER "The Rolling Stones"
INDEX 01 00:00:00
TRACK 02 AUDIO
TITLE "Confessin' The Blues"
PERFORMER "The Rolling Stones"
INDEX 00 03:03:15
FILE "02 - Confessin' The Blues.wav" WAVE
INDEX 01 00:00:00
TRACK 03 AUDIO
TITLE "Empty Heart"
PERFORMER "The Rolling Stones"
INDEX 00 02:47:20
FILE "03 - Empty Heart.wav" WAVE
INDEX 01 00:00:00
TRACK 04 AUDIO
TITLE "Time Is On My Side"
PERFORMER "The Rolling Stones"
INDEX 00 02:36:73
FILE "04 - Time Is On My Side.wav" WAVE
INDEX 01 00:00:00
TRACK 05 AUDIO
TITLE "Good Times, Bad Times"
PERFORMER "The Rolling Stones"
INDEX 00 02:52:55
FILE "05 - Good Times, Bad Times.wav" WAVE
INDEX 01 00:00:00
TRACK 06 AUDIO
TITLE "It's All Over Now"
PERFORMER "The Rolling Stones"
INDEX 00 02:30:15
FILE "06 - It's All Over Now.wav" WAVE
INDEX 01 00:00:00
TRACK 07 AUDIO
TITLE "2120 South Michigan Avenue"
PERFORMER "The Rolling Stones"
INDEX 00 03:26:35
FILE "07 - 2120 South Michigan Avenue.wav" WAVE
INDEX 01 00:00:00
TRACK 08 AUDIO
TITLE "Under The Boardwalk"
PERFORMER "The Rolling Stones"
INDEX 00 03:38:38
FILE "08 - Under The Boardwalk.wav" WAVE
INDEX 01 00:00:00
TRACK 09 AUDIO
TITLE "Congradulations"
PERFORMER "The Rolling Stones"
INDEX 00 02:46:44
FILE "09 - Congradulations.wav" WAVE
INDEX 01 00:00:00
TRACK 10 AUDIO
TITLE "Grown Up Wrong"
PERFORMER "The Rolling Stones"
INDEX 00 02:28:64
FILE "10 - Grown Up Wrong.wav" WAVE
INDEX 01 00:00:00
TRACK 11 AUDIO
TITLE "If You Need Me"
PERFORMER "The Rolling Stones"
INDEX 00 02:05:45
FILE "11 - If You Need Me.wav" WAVE
INDEX 01 00:00:00
TRACK 12 AUDIO
TITLE "Susie Q"
PERFORMER "The Rolling Stones"
INDEX 00 02:04:19
FILE "12 - Susie Q.wav" WAVE
INDEX 01 00:00:00


Released:
17 October 1964
Recorded: 25 February, 12 May, 10–11 and 24–26 June, 2 and 28–29 September 1964; Chess, Chicago, Illinois, United States and Regent Sound
Studios, London, United Kingdom
Label: London

The Rolling Stones:
Mick Jagger – lead vocals, harmonica and percussion
Keith Richards – acoustic and electric guitar and backing vocals
Brian Jones – electric and acoustic guitar, harmonica, tambourine and backing vocals
Charlie Watts – drums and tambourine
Bill Wyman – bass guitar and backing vocals

Additional musicians:
Ian Stewart – piano and organ
Тип рипа: image+.cue
Продолжительность: 35:28
Источник: Ironbelly
Трэклист:
1. Everybody Needs Somebody To Love (Version 2) (2:56)
2. Down Home Girl (4:11)
3. You Can't Catch Me (3:34)
4. Heart Of Stone (2:47)
5. What A Shame (3:03)
6. Mona (3:33)
7. Down The Road Apiece (2:56)
8. Off The Hook (2:35)
9. Pain In My Heart (2:10)
10. Oh Baby (We Got A Good Thing Goin') (2:08)
11. Little Red Rooster (3:05)
12. Surprise, Surprise (2:30)
Exact Audio Copy V1.0 beta 3 from 29. August 2011

EAC extraction logfile from 2. October 2012, 16:19

The Rolling Stones / The Rolling Stones, Now! (3rd West German Pressing)

Used drive : HL-DT-STDVD+-RW GH50N Adapter: 0 ID: 1

Read mode : Secure
Utilize accurate stream : Yes
Defeat audio cache : Yes
Make use of C2 pointers : No

Read offset correction : 667
Overread into Lead-In and Lead-Out : No
Fill up missing offset samples with silence : Yes
Delete leading and trailing silent blocks : No
Null samples used in CRC calculations : Yes
Used interface : Native Win32 interface for Win NT & 2000

Used output format : User Defined Encoder
Selected bitrate : 768 kBit/s
Quality : High
Add ID3 tag : Yes
Command line compressor : C:\Program Files (x86)\Exact Audio Copy\FLAC\FLAC.EXE
Additional command line options : -V -8 -T "Date=%year%" -T "Genre=%genre%" %source%

TOC of the extracted CD

Track | Start | Length | Start sector | End sector
---------------------------------------------------------
1 | 0:00.33 | 3:01.02 | 33 | 13609
2 | 3:01.35 | 4:15.40 | 13610 | 32774
3 | 7:17.00 | 3:40.30 | 32775 | 49304
4 | 10:57.30 | 2:52.53 | 49305 | 62257
5 | 13:50.08 | 3:09.30 | 62258 | 76462
6 | 16:59.38 | 3:37.52 | 76463 | 92789
7 | 20:37.15 | 3:01.38 | 92790 | 106402
8 | 23:38.53 | 2:39.30 | 106403 | 118357
9 | 26:18.08 | 2:15.20 | 118358 | 128502
10 | 28:33.28 | 2:12.60 | 128503 | 138462
11 | 30:46.13 | 3:08.55 | 138463 | 152617
12 | 33:54.68 | 2:30.00 | 152618 | 163867

Range status and errors

Selected range

Filename C:\111\London\Now! (3rd West German Pressing)\The Rolling Stones - The Rolling Stones, Now! (3rd West German Pressing).wav

Peak level 93.2 %
Extraction speed 2.8 X
Range quality 99.9 %
Test CRC 9F0AFFBD
Copy CRC 9F0AFFBD
Copy OK

No errors occurred

AccurateRip summary

Track 1 accurately ripped (confidence 10) [E0F9D4FE] (AR v1)
Track 2 accurately ripped (confidence 12) [B62212BC] (AR v1)
Track 3 accurately ripped (confidence 12) [2E6C63F4] (AR v1)
Track 4 accurately ripped (confidence 11) [78DAE7B2] (AR v1)
Track 5 accurately ripped (confidence 12) [891C755B] (AR v1)
Track 6 accurately ripped (confidence 11) [EB1016AE] (AR v1)
Track 7 accurately ripped (confidence 12) [7734AE7B] (AR v1)
Track 8 accurately ripped (confidence 12) [790F53DE] (AR v1)
Track 9 accurately ripped (confidence 12) [FFD3D4B3] (AR v1)
Track 10 accurately ripped (confidence 11) [AB7F508D] (AR v1)
Track 11 accurately ripped (confidence 11) [0034938B] (AR v1)
Track 12 accurately ripped (confidence 11) [9F41A87C] (AR v1)

All tracks accurately ripped

End of status report

==== Log checksum 32EE1F6E36097BE71FCB617868D052B048DC1F96007D5536675E18893F707C97 ====
Тип рипа: image+.cue
Продолжительность: 38:15
Источник: dafnaplus
Трэклист:
1. Everybody Needs Somebody To Love (5:05)
2. Down Home Girl (4:17)
3. You Can't Catch Me (3:41)
4. Heart Of Stone (2:49)
5. What A Shame (3:08)
6. Mona (I Need You Baby) (3:37)
7. Down The Road Apiece (2:59)
8. Off The Hook (2:36)
9. Pain In My Heart (2:14)
10. Oh Baby (We Got A Good Thing Goin') (2:09)
11. Little Red Rooster (3:07)
12. Surprise, Surprise (2:28)
Exact Audio Copy V0.99 prebeta 5 from 4. May 2009

EAC extraction logfile from 3. April 2010, 23:29

The Rolling Stones / The Rolling Stones, Now!

Used drive : TSSTcorpCD/DVDW SH-S183A Adapter: 1 ID: 0

Read mode : Secure
Utilize accurate stream : Yes
Defeat audio cache : Yes
Make use of C2 pointers : No

Read offset correction : 6
Overread into Lead-In and Lead-Out : No
Fill up missing offset samples with silence : Yes
Delete leading and trailing silent blocks : No
Null samples used in CRC calculations : Yes
Used interface : Installed external ASPI interface

Used output format : User Defined Encoder
Selected bitrate : 1024 kBit/s
Quality : High
Add ID3 tag : No
Command line compressor : C:\Program Files\Exact Audio Copy\Flac\flac.exe
Additional command line options : -8 -V -T "ARTIST=%a" -T "TITLE=%t" -T "ALBUM=%g" -T "DATE=%y" -T "TRACKNUMBER=%n" -T "TOTALTRACKS=%x" -T "GENRE=%m" -T "ALBUM ARTIST=%v" -T "ALBUMARTIST=%v" -T "COMMENT=EAC V0.99 prebeta 5, Secure Mode, AccurateRip, FLAC -8

TOC of the extracted CD

Track | Start | Length | Start sector | End sector
---------------------------------------------------------
1 | 0:00.00 | 5:05.00 | 0 | 22874
2 | 5:05.00 | 4:17.00 | 22875 | 42149
3 | 9:22.00 | 3:41.00 | 42150 | 58724
4 | 13:03.00 | 2:49.50 | 58725 | 71449
5 | 15:52.50 | 3:08.62 | 71450 | 85611
6 | 19:01.37 | 3:37.25 | 85612 | 101911
7 | 22:38.62 | 2:59.50 | 101912 | 115386
8 | 25:38.37 | 2:36.63 | 115387 | 127149
9 | 28:15.25 | 2:14.00 | 127150 | 137199
10 | 30:29.25 | 2:09.62 | 137200 | 146936
11 | 32:39.12 | 3:07.00 | 146937 | 160961
12 | 35:46.12 | 2:28.63 | 160962 | 172124

Range status and errors

Selected range

Filename J:\1965 Rolling Stones-The Rolling Stones, Now!\Cd\The Rolling Stones - The Rolling Stones, Now!.wav

Peak level 95.8 %
Range quality 100.0 %
Test CRC D0A1761F
Copy CRC D0A1761F
Copy OK

No errors occurred

AccurateRip summary

Track 1 accurately ripped (confidence 3) [0EF9F162]
Track 2 accurately ripped (confidence 3) [777D7BCF]
Track 3 accurately ripped (confidence 3) [2AB524D3]
Track 4 accurately ripped (confidence 3) [CF2F1F51]
Track 5 accurately ripped (confidence 3) [42813FF5]
Track 6 accurately ripped (confidence 3) [0CCC155C]
Track 7 accurately ripped (confidence 3) [D4F4A887]
Track 8 accurately ripped (confidence 3) [3BB8DF56]
Track 9 accurately ripped (confidence 3) [CD2DC2E5]
Track 10 accurately ripped (confidence 3) [56AAA0DE]
Track 11 accurately ripped (confidence 3) [5C8E5948]
Track 12 accurately ripped (confidence 3) [6E1EBB3F]

All tracks accurately ripped

End of status report
Тип рипа: tracks+.cue
Продолжительность: 35:52
Источник: Rob26
Трэклист:
1. Everybody Needs Somebody to Love (3:00)
2. Down Home Girl (4:13)
3. You Can't Catch Me (3:40)
4. Heart of Stone (2:49)
5. What a Shame (3:06)
6. Mona (I Need You Baby) (3:35)
7. Down the Road Apiece (2:56)
8. Off the Hook (2:35)
9. Pain in My Heart (2:12)
10. Oh Baby (We Got a Good Thing Goin') (2:09)
11. Little Red Rooster (3:06)
12. Surprise, Surprise (2:31)
Exact Audio Copy V0.99 prebeta 5 from 4. May 2009

EAC extraction logfile from 3. January 2011, 5:11

The Rolling Stones / The Rolling Stones, Now!

Used drive : HL-DT-STDVDRAM GH22NS40 Adapter: 1 ID: 1

Read mode : Secure
Utilize accurate stream : Yes
Defeat audio cache : Yes
Make use of C2 pointers : No

Read offset correction : 667
Overread into Lead-In and Lead-Out : No
Fill up missing offset samples with silence : Yes
Delete leading and trailing silent blocks : No
Null samples used in CRC calculations : Yes
Used interface : Native Win32 interface for Win NT & 2000
Gap handling : Appended to previous track

Used output format : User Defined Encoder
Selected bitrate : 128 kBit/s
Quality : High
Add ID3 tag : No
Command line compressor : C:\Program Files\Exact Audio Copy\Flac\flac.exe
Additional command line options : -V -8 -T "artist=%a" -T "title=%t" -T "album=%g" -T "date=%y" -T "tracknumber=%n" -T "genre=%m" %s

TOC of the extracted CD

Track | Start | Length | Start sector | End sector
---------------------------------------------------------
1 | 0:00.00 | 3:00.37 | 0 | 13536
2 | 3:00.37 | 4:13.15 | 13537 | 32526
3 | 7:13.52 | 3:40.30 | 32527 | 49056
4 | 10:54.07 | 2:49.70 | 49057 | 61801
5 | 13:44.02 | 3:06.70 | 61802 | 75821
6 | 16:50.72 | 3:35.28 | 75822 | 91974
7 | 20:26.25 | 2:56.35 | 91975 | 105209
8 | 23:22.60 | 2:35.25 | 105210 | 116859
9 | 25:58.10 | 2:12.32 | 116860 | 126791
10 | 28:10.42 | 2:09.38 | 126792 | 136504
11 | 30:20.05 | 3:06.42 | 136505 | 150496
12 | 33:26.47 | 2:31.55 | 150497 | 161876

Track 1

Filename C:\Music\The Rolling Stones - 1965 - The Rolling Stones, Now! [FLAC]\01 Everybody Needs Somebody to Love.wav

Pre-gap length 0:00:02.00

Peak level 94.4 %
Track quality 100.0 %
Test CRC 42401A92
Copy CRC 42401A92
Accurately ripped (confidence 47) [31E4D5D1]
Copy OK

Track 2

Filename C:\Music\The Rolling Stones - 1965 - The Rolling Stones, Now! [FLAC]\02 Down Home Girl.wav

Pre-gap length 0:00:02.62

Peak level 93.2 %
Track quality 100.0 %
Test CRC 2CC308D5
Copy CRC 2CC308D5
Accurately ripped (confidence 45) [710EE711]
Copy OK

Track 3

Filename C:\Music\The Rolling Stones - 1965 - The Rolling Stones, Now! [FLAC]\03 You Can't Catch Me.wav

Pre-gap length 0:00:01.46

Peak level 83.0 %
Track quality 100.0 %
Test CRC 9BD3013F
Copy CRC 9BD3013F
Accurately ripped (confidence 46) [985E3605]
Copy OK

Track 4

Filename C:\Music\The Rolling Stones - 1965 - The Rolling Stones, Now! [FLAC]\04 Heart of Stone.wav

Pre-gap length 0:00:00.93

Peak level 99.8 %
Track quality 100.0 %
Test CRC 158062F8
Copy CRC 158062F8
Accurately ripped (confidence 46) [760F9DAF]
Copy OK

Track 5

Filename C:\Music\The Rolling Stones - 1965 - The Rolling Stones, Now! [FLAC]\05 What a Shame.wav

Pre-gap length 0:00:00.86

Peak level 96.9 %
Track quality 99.9 %
Test CRC 36627CC6
Copy CRC 36627CC6
Accurately ripped (confidence 46) [29FDF52E]
Copy OK

Track 6

Filename C:\Music\The Rolling Stones - 1965 - The Rolling Stones, Now! [FLAC]\06 Mona (I Need You Baby).wav

Pre-gap length 0:00:01.93

Peak level 89.2 %
Track quality 100.0 %
Test CRC 112E097D
Copy CRC 112E097D
Accurately ripped (confidence 46) [2432928C]
Copy OK

Track 7

Filename C:\Music\The Rolling Stones - 1965 - The Rolling Stones, Now! [FLAC]\07 Down the Road Apiece.wav

Pre-gap length 0:00:00.66

Peak level 93.8 %
Track quality 100.0 %
Test CRC 7DCCFD4B
Copy CRC 7DCCFD4B
Accurately ripped (confidence 46) [9CD934AB]
Copy OK

Track 8

Filename C:\Music\The Rolling Stones - 1965 - The Rolling Stones, Now! [FLAC]\08 Off the Hook.wav

Pre-gap length 0:00:01.26

Peak level 89.3 %
Track quality 100.0 %
Test CRC 9D338AB9
Copy CRC 9D338AB9
Accurately ripped (confidence 46) [59CFBA96]
Copy OK

Track 9

Filename C:\Music\The Rolling Stones - 1965 - The Rolling Stones, Now! [FLAC]\09 Pain in My Heart.wav

Pre-gap length 0:00:01.06

Peak level 91.2 %
Track quality 100.0 %
Test CRC F9D06903
Copy CRC F9D06903
Accurately ripped (confidence 45) [7E64A5FD]
Copy OK

Track 10

Filename C:\Music\The Rolling Stones - 1965 - The Rolling Stones, Now! [FLAC]\10 Oh Baby (We Got a Good Thing Goin').wav

Pre-gap length 0:00:00.89

Peak level 99.8 %
Track quality 99.9 %
Test CRC 2D935D6C
Copy CRC 2D935D6C
Accurately ripped (confidence 46) [7F6B95BD]
Copy OK

Track 11

Filename C:\Music\The Rolling Stones - 1965 - The Rolling Stones, Now! [FLAC]\11 Little Red Rooster.wav

Pre-gap length 0:00:01.46

Peak level 99.8 %
Track quality 100.0 %
Test CRC 0A85A137
Copy CRC 0A85A137
Accurately ripped (confidence 47) [0C8B6401]
Copy OK

Track 12

Filename C:\Music\The Rolling Stones - 1965 - The Rolling Stones, Now! [FLAC]\12 Surprise, Surprise.wav

Pre-gap length 0:00:00.80

Peak level 99.8 %
Track quality 100.0 %
Test CRC 9508865A
Copy CRC 9508865A
Accurately ripped (confidence 41) [8B966961]
Copy OK

All tracks accurately ripped

No errors occurred

End of status report
REM GENRE Rock
REM DATE 1965
REM DISCID 89086E0C
REM COMMENT "ExactAudioCopy v0.99pb5"
FILE "01 Everybody Needs Somebody to Love.wav" WAVE
TRACK 01 AUDIO
INDEX 01 00:00:00
TRACK 02 AUDIO
INDEX 00 02:57:65
FILE "02 Down Home Girl.wav" WAVE
INDEX 01 00:00:00
TRACK 03 AUDIO
INDEX 00 04:11:55
FILE "03 You Can't Catch Me.wav" WAVE
INDEX 01 00:00:00
TRACK 04 AUDIO
INDEX 00 03:39:35
FILE "04 Heart of Stone.wav" WAVE
INDEX 01 00:00:00
TRACK 05 AUDIO
INDEX 00 02:49:05
FILE "05 What a Shame.wav" WAVE
INDEX 01 00:00:00
TRACK 06 AUDIO
INDEX 00 03:05:00
FILE "06 Mona (I Need You Baby).wav" WAVE
INDEX 01 00:00:00
TRACK 07 AUDIO
INDEX 00 03:34:53
FILE "07 Down the Road Apiece.wav" WAVE
INDEX 01 00:00:00
TRACK 08 AUDIO
INDEX 00 02:55:15
FILE "08 Off the Hook.wav" WAVE
INDEX 01 00:00:00
TRACK 09 AUDIO
INDEX 00 02:34:20
FILE "09 Pain in My Heart.wav" WAVE
INDEX 01 00:00:00
TRACK 10 AUDIO
INDEX 00 02:11:40
FILE "10 Oh Baby (We Got a Good Thing Goin').wav" WAVE
INDEX 01 00:00:00
TRACK 11 AUDIO
INDEX 00 02:08:03
FILE "11 Little Red Rooster.wav" WAVE
INDEX 01 00:00:00
TRACK 12 AUDIO
INDEX 00 03:05:57
FILE "12 Surprise, Surprise.wav" WAVE
INDEX 01 00:00:00
Тип рипа: tracks+.cue
Продолжительность: 35:52
Источник: ruskaval
Трэклист:
1. Everybody Needs Somebody to Love (3:00)
2. Down Home Girl (4:13)
3. You Can't Catch Me (3:40)
4. Heart of Stone (2:49)
5. What a Shame (3:06)
6. Mona (I Need You Baby) (3:35)
7. Down the Road Apiece (2:56)
8. Off the Hook (2:35)
9. Pain in My Heart (2:12)
10. Oh Baby (We Got a Good Thing Goin') (2:09)
11. Little Red Rooster (3:06)
12. Surprise, Surprise (2:31)
EAC extraction logfile from 13. November 2008, 13:35 for CD
The Rolling Stones / Now!

Used drive : PIONEER DVD-RW DVR-111L Adapter: 0 ID: 1
Read mode : Secure with NO C2, accurate stream, disable cache
Read offset correction : 48
Overread into Lead-In and Lead-Out : No

Used output format : C:\Program Files\FLAC\flac.exe (User Defined Encoder)
128 kBit/s
Additional command line options : -8 -V -T "ARTIST=%a" -T "TITLE=%t" -T "ALBUM=%g" -T "DATE=%y" -T "TRACKNUMBER=%n" -T "GENRE=%m" -T "COMMENT=EAC FLAC -8" %s

Other options :
Fill up missing offset samples with silence : Yes
Delete leading and trailing silent blocks : No
Installed external ASPI interface

Track 1
Filename C:\UICY-93015\01 - Everybody Needs Somebody to Love.wav

Pre-gap length 0:00:02.00

Peak level 94.4 %
Track quality 100.0 %
Test CRC 7C09C29E
Copy CRC 7C09C29E
Copy OK

Track 2
Filename C:\UICY-93015\02 - Down Home Girl.wav

Pre-gap length 0:00:02.26

Peak level 93.2 %
Track quality 100.0 %
Test CRC B21E46A0
Copy CRC B21E46A0
Copy OK

Track 3
Filename C:\UICY-93015\03 - You Can't Catch Me.wav

Pre-gap length 0:00:00.12

Peak level 83.0 %
Track quality 100.0 %
Test CRC 7FEBCC66
Copy CRC 7FEBCC66
Copy OK

Track 4
Filename C:\UICY-93015\04 - Heart of Stone.wav

Pre-gap length 0:00:00.64

Peak level 99.8 %
Track quality 100.0 %
Test CRC B8E1DC13
Copy CRC B8E1DC13
Copy OK

Track 5
Filename C:\UICY-93015\05 - What a Shame.wav

Pre-gap length 0:00:00.46

Peak level 96.9 %
Track quality 99.9 %
Test CRC 017F6781
Copy CRC 017F6781
Copy OK

Track 6
Filename C:\UICY-93015\06 - Mona (I Need You Baby).wav

Pre-gap length 0:00:01.54

Peak level 89.2 %
Track quality 100.0 %
Test CRC 83540F09
Copy CRC 83540F09
Copy OK

Track 7
Filename C:\UICY-93015\07 - Down the Road Apiece.wav

Pre-gap length 0:00:00.25

Peak level 93.8 %
Track quality 100.0 %
Test CRC 83EADECD
Copy CRC 83EADECD
Copy OK

Track 8
Filename C:\UICY-93015\08 - Off the Hook.wav

Pre-gap length 0:00:01.04

Peak level 89.3 %
Track quality 100.0 %
Test CRC E5E7F591
Copy CRC E5E7F591
Copy OK

Track 9
Filename C:\UICY-93015\09 - Pain in My Heart.wav

Peak level 91.2 %
Track quality 100.0 %
Test CRC DEF880BF
Copy CRC DEF880BF
Copy OK

Track 10
Filename C:\UICY-93015\10 - Oh Baby (We Got a Good Thing Goin').wav

Pre-gap length 0:00:00.60

Peak level 99.8 %
Track quality 99.9 %
Test CRC 1D3F3667
Copy CRC 1D3F3667
Copy OK

Track 11
Filename C:\UICY-93015\11 - Little Red Rooster.wav

Pre-gap length 0:00:01.12

Peak level 99.8 %
Track quality 100.0 %
Test CRC E93FDDA2
Copy CRC E93FDDA2
Copy OK

Track 12
Filename C:\UICY-93015\12 - Surprise, Surprise.wav

Pre-gap length 0:00:00.45

Peak level 99.8 %
Track quality 99.9 %
Test CRC 0FC96939
Copy CRC 0FC96939
Copy OK

No errors occured

End of status report
REM GENRE "Classic Rock"
REM DATE 1965
REM DISCID 89086E0C
REM COMMENT "ExactAudioCopy v0.95b3"
PERFORMER "The Rolling Stones"
TITLE "Now!"
FILE "01 - Everybody Needs Somebody to Love.wav" WAVE
TRACK 01 AUDIO
TITLE "Everybody Needs Somebody to Love"
PERFORMER "The Rolling Stones"
INDEX 01 00:00:00
TRACK 02 AUDIO
TITLE "Down Home Girl"
PERFORMER "The Rolling Stones"
INDEX 00 02:58:11
FILE "02 - Down Home Girl.wav" WAVE
INDEX 01 00:00:00
TRACK 03 AUDIO
TITLE "You Can't Catch Me"
PERFORMER "The Rolling Stones"
INDEX 00 04:13:03
FILE "03 - You Can't Catch Me.wav" WAVE
INDEX 01 00:00:00
TRACK 04 AUDIO
TITLE "Heart of Stone"
PERFORMER "The Rolling Stones"
INDEX 00 03:39:41
FILE "04 - Heart of Stone.wav" WAVE
INDEX 01 00:00:00
TRACK 05 AUDIO
TITLE "What a Shame"
PERFORMER "The Rolling Stones"
INDEX 00 02:49:24
FILE "05 - What a Shame.wav" WAVE
INDEX 01 00:00:00
TRACK 06 AUDIO
TITLE "Mona (I Need You Baby)"
PERFORMER "The Rolling Stones"
INDEX 00 03:05:16
FILE "06 - Mona (I Need You Baby).wav" WAVE
INDEX 01 00:00:00
TRACK 07 AUDIO
TITLE "Down the Road Apiece"
PERFORMER "The Rolling Stones"
INDEX 00 03:35:03
FILE "07 - Down the Road Apiece.wav" WAVE
INDEX 01 00:00:00
TRACK 08 AUDIO
TITLE "Off the Hook"
PERFORMER "The Rolling Stones"
INDEX 00 02:55:31
FILE "08 - Off the Hook.wav" WAVE
INDEX 01 00:00:00
FILE "09 - Pain in My Heart.wav" WAVE
TRACK 09 AUDIO
TITLE "Pain in My Heart"
PERFORMER "The Rolling Stones"
INDEX 01 00:00:00
TRACK 10 AUDIO
TITLE "Oh Baby (We Got a Good Thing Goin')"
PERFORMER "The Rolling Stones"
INDEX 00 02:11:47
FILE "10 - Oh Baby (We Got a Good Thing Goin').wav" WAVE
INDEX 01 00:00:00
TRACK 11 AUDIO
TITLE "Little Red Rooster"
PERFORMER "The Rolling Stones"
INDEX 00 02:08:26
FILE "11 - Little Red Rooster.wav" WAVE
INDEX 01 00:00:00
TRACK 12 AUDIO
TITLE "Surprise, Surprise"
PERFORMER "The Rolling Stones"
INDEX 00 03:05:72
FILE "12 - Surprise, Surprise.wav" WAVE
INDEX 01 00:00:00


Released:
13 February 1965 (US)
Recorded: 10 June – 8 November 1964, except "Mona (I Need You Baby)", 3–4 January 1964
Label: London

The Rolling Stones:
Mick Jagger – lead vocals, harmonica, tambourine and percussion
Keith Richards – guitar and backing vocals
Brian Jones – guitar and slide guitar, harmonica and backing vocals
Charlie Watts – drums and percussion
Bill Wyman – bass guitar and backing vocals

Additional musicians:
Jack Nitzsche – piano, 'Nitzsche' phone and tambourine
Ian Stewart – piano
Тип рипа: tracks+.cue
Продолжительность: 54:56
Источник: lyzibang
Трэклист:
1. Everybody Needs Somebody to Love (5:04)
2. Down Home Girl (4:14)
3. You Can't Catch Me (3:35)
4. Time Is On My Side (2:57)
5. What a Shame (3:05)
6. Grown Up Wrong (2:06)
7. Down the Road Apiece (2:57)
8. Under the Boardwalk (2:47)
9. I Can't Be Satisfied (3:27)
10. Pain in My Heart (2:11)
11. Off the Hook (2:37)
12. Suzie-Q (1:51)
Bonus Tracks
13. Everybody Needs Somebody to Love (Version 1) (2:54)
14. Time Is On My Side (Version 1) (2:53)
15. Surprise, Surprise (Saturday Club Sampler) (2:29)
16. Try a Little Harder (basic mix) (2:21)
17. Congratulations (2:28)
18. Look What You've Done (2:17)
19. Rice Crispies Ad (0:27)
20. As Time Goes By (demo - unreleased) (2:16)
Exact Audio Copy V0.99 prebeta 5 from 4. May 2009

EAC extraction logfile from 7. October 2009, 14:28

The Rolling Stones / The Rolling Stones No. 2

Used drive : _NEC DVD+-RW ND-6650A Adapter: 1 ID: 0

Read mode : Secure
Utilize accurate stream : Yes
Defeat audio cache : Yes
Make use of C2 pointers : No

Read offset correction : 48
Overread into Lead-In and Lead-Out : No
Fill up missing offset samples with silence : Yes
Delete leading and trailing silent blocks : No
Null samples used in CRC calculations : Yes
Used interface : Native Win32 interface for Win NT & 2000
Gap handling : Appended to previous track

Used output format : User Defined Encoder
Selected bitrate : 768 kBit/s
Quality : High
Add ID3 tag : No
Command line compressor : C:\Program Files\Exact Audio Copy\FLAC\FLAC.EXE
Additional command line options : -V -8 -T "artist=%a" -T "title=%t" -T "album=%g" -T "date=%y" -T "tracknumber=%n" -T "genre=%m" %s

TOC of the extracted CD

Track | Start | Length | Start sector | End sector
---------------------------------------------------------
1 | 0:00.00 | 5:04.48 | 0 | 22847
2 | 5:04.48 | 4:14.13 | 22848 | 41910
3 | 9:18.61 | 3:35.62 | 41911 | 58097
4 | 12:54.48 | 2:57.07 | 58098 | 71379
5 | 15:51.55 | 3:05.62 | 71380 | 85316
6 | 18:57.42 | 2:06.01 | 85317 | 94767
7 | 21:03.43 | 2:57.02 | 94768 | 108044
8 | 24:00.45 | 2:47.31 | 108045 | 120600
9 | 26:48.01 | 3:27.57 | 120601 | 136182
10 | 30:15.58 | 2:11.50 | 136183 | 146057
11 | 32:27.33 | 2:37.25 | 146058 | 157857
12 | 35:04.58 | 1:51.32 | 157858 | 166214
13 | 36:56.15 | 2:54.08 | 166215 | 179272
14 | 39:50.23 | 2:53.29 | 179273 | 192276
15 | 42:43.52 | 2:29.49 | 192277 | 203500
16 | 45:13.26 | 2:21.34 | 203501 | 214109
17 | 47:34.60 | 2:28.07 | 214110 | 225216
18 | 50:02.67 | 2:17.25 | 225217 | 235516
19 | 52:20.17 | 0:27.60 | 235517 | 237601
20 | 52:48.02 | 2:16.11 | 237602 | 247812

Track 1

Filename E:\Music Library\Commercial Releases\The Rolling Stones [No. 2] (2002 Reissue CD Maximum CDM 1202-1039;04)\The Rolling Stones The Rolling Stones No. 2 01 Everybody Needs Somebody to Love.wav

Pre-gap length 0:00:02.00

Peak level 99.2 %
Track quality 100.0 %
Test CRC 1B702087
Copy CRC 1B702087
Cannot be verified as accurate (confidence 1) [3747BF38], AccurateRip returned [E114D10C]
Copy OK

Track 2

Filename E:\Music Library\Commercial Releases\The Rolling Stones [No. 2] (2002 Reissue CD Maximum CDM 1202-1039;04)\The Rolling Stones The Rolling Stones No. 2 02 Down Home Girl.wav

Peak level 99.1 %
Track quality 100.0 %
Test CRC A8E007BC
Copy CRC A8E007BC
Cannot be verified as accurate (confidence 1) [0E1C7582], AccurateRip returned [8FB2D656]
Copy OK

Track 3

Filename E:\Music Library\Commercial Releases\The Rolling Stones [No. 2] (2002 Reissue CD Maximum CDM 1202-1039;04)\The Rolling Stones The Rolling Stones No. 2 03 You Can't Catch Me.wav

Peak level 100.0 %
Track quality 99.9 %
Test CRC FD48BEA6
Copy CRC FD48BEA6
Cannot be verified as accurate (confidence 1) [9D1ED7CD], AccurateRip returned [50D16291]
Copy OK

Track 4

Filename E:\Music Library\Commercial Releases\The Rolling Stones [No. 2] (2002 Reissue CD Maximum CDM 1202-1039;04)\The Rolling Stones The Rolling Stones No. 2 04 Time Is On My Side.wav

Peak level 100.0 %
Track quality 100.0 %
Test CRC 89C3A63D
Copy CRC 89C3A63D
Cannot be verified as accurate (confidence 1) [5B7B532E], AccurateRip returned [729B838E]
Copy OK

Track 5

Filename E:\Music Library\Commercial Releases\The Rolling Stones [No. 2] (2002 Reissue CD Maximum CDM 1202-1039;04)\The Rolling Stones The Rolling Stones No. 2 05 What a Shame.wav

Peak level 100.0 %
Track quality 100.0 %
Test CRC 08B0B98D
Copy CRC 08B0B98D
Cannot be verified as accurate (confidence 1) [97D48B58], AccurateRip returned [73BCAAD6]
Copy OK

Track 6

Filename E:\Music Library\Commercial Releases\The Rolling Stones [No. 2] (2002 Reissue CD Maximum CDM 1202-1039;04)\The Rolling Stones The Rolling Stones No. 2 06 Grown Up Wrong.wav

Peak level 97.9 %
Track quality 100.0 %
Test CRC E5648623
Copy CRC E5648623
Cannot be verified as accurate (confidence 1) [A3262631], AccurateRip returned [737B772B]
Copy OK

Track 7

Filename E:\Music Library\Commercial Releases\The Rolling Stones [No. 2] (2002 Reissue CD Maximum CDM 1202-1039;04)\The Rolling Stones The Rolling Stones No. 2 07 Down the Road Apiece.wav

Peak level 100.0 %
Track quality 100.0 %
Test CRC 07C23DDB
Copy CRC 07C23DDB
Cannot be verified as accurate (confidence 1) [4213B04C], AccurateRip returned [6846C085]
Copy OK

Track 8

Filename E:\Music Library\Commercial Releases\The Rolling Stones [No. 2] (2002 Reissue CD Maximum CDM 1202-1039;04)\The Rolling Stones The Rolling Stones No. 2 08 Under the Boardwalk.wav

Peak level 83.9 %
Track quality 100.0 %
Test CRC 967786E0
Copy CRC 967786E0
Cannot be verified as accurate (confidence 1) [90C2C559], AccurateRip returned [C3B7D6DC]
Copy OK

Track 9

Filename E:\Music Library\Commercial Releases\The Rolling Stones [No. 2] (2002 Reissue CD Maximum CDM 1202-1039;04)\The Rolling Stones The Rolling Stones No. 2 09 I Can't Be Satisfied.wav

Peak level 89.1 %
Track quality 100.0 %
Test CRC D78BCC87
Copy CRC D78BCC87
Cannot be verified as accurate (confidence 1) [22A08496], AccurateRip returned [0887294E]
Copy OK

Track 10

Filename E:\Music Library\Commercial Releases\The Rolling Stones [No. 2] (2002 Reissue CD Maximum CDM 1202-1039;04)\The Rolling Stones The Rolling Stones No. 2 10 Pain in My Heart.wav

Peak level 99.2 %
Track quality 100.0 %
Test CRC 754CD596
Copy CRC 754CD596
Cannot be verified as accurate (confidence 1) [40AFCB3A], AccurateRip returned [7BE106EE]
Copy OK

Track 11

Filename E:\Music Library\Commercial Releases\The Rolling Stones [No. 2] (2002 Reissue CD Maximum CDM 1202-1039;04)\The Rolling Stones The Rolling Stones No. 2 11 Off the Hook.wav

Peak level 100.0 %
Track quality 100.0 %
Test CRC ACBFC258
Copy CRC ACBFC258
Cannot be verified as accurate (confidence 1) [3EDAF98E], AccurateRip returned [1D02927B]
Copy OK

Track 12

Filename E:\Music Library\Commercial Releases\The Rolling Stones [No. 2] (2002 Reissue CD Maximum CDM 1202-1039;04)\The Rolling Stones The Rolling Stones No. 2 12 Suzie-Q.wav

Peak level 94.4 %
Track quality 100.0 %
Test CRC AD91E3A1
Copy CRC AD91E3A1
Cannot be verified as accurate (confidence 1) [842AE3D8], AccurateRip returned [8E239829]
Copy OK

Track 13

Filename E:\Music Library\Commercial Releases\The Rolling Stones [No. 2] (2002 Reissue CD Maximum CDM 1202-1039;04)\The Rolling Stones The Rolling Stones No. 2 13 Everybody Needs Somebody to Love (Version 1).wav

Peak level 84.4 %
Track quality 100.0 %
Test CRC 5B9E7E41
Copy CRC 5B9E7E41
Cannot be verified as accurate (confidence 1) [A13F5D26], AccurateRip returned [2AE94469]
Copy OK

Track 14

Filename E:\Music Library\Commercial Releases\The Rolling Stones [No. 2] (2002 Reissue CD Maximum CDM 1202-1039;04)\The Rolling Stones The Rolling Stones No. 2 14 Time Is On My Side (Version 1).wav

Peak level 93.0 %
Track quality 100.0 %
Test CRC A21AA6B2
Copy CRC A21AA6B2
Cannot be verified as accurate (confidence 1) [594B27C0], AccurateRip returned [E0BEF304]
Copy OK

Track 15

Filename E:\Music Library\Commercial Releases\The Rolling Stones [No. 2] (2002 Reissue CD Maximum CDM 1202-1039;04)\The Rolling Stones The Rolling Stones No. 2 15 Surprise, Surprise (Saturday Club Sampler).wav

Peak level 96.6 %
Track quality 100.0 %
Test CRC 50A90142
Copy CRC 50A90142
Cannot be verified as accurate (confidence 1) [7EE3B5E5], AccurateRip returned [A833014B]
Copy OK

Track 16

Filename E:\Music Library\Commercial Releases\The Rolling Stones [No. 2] (2002 Reissue CD Maximum CDM 1202-1039;04)\The Rolling Stones The Rolling Stones No. 2 16 Try a Little Harder (basic mix).wav

Peak level 93.2 %
Track quality 99.8 %
Test CRC A3951581
Copy CRC A3951581
Cannot be verified as accurate (confidence 1) [B5A20914], AccurateRip returned [AF18E80A]
Copy OK

Track 17

Filename E:\Music Library\Commercial Releases\The Rolling Stones [No. 2] (2002 Reissue CD Maximum CDM 1202-1039;04)\The Rolling Stones The Rolling Stones No. 2 17 Congratulations.wav

Peak level 84.2 %
Track quality 99.9 %
Test CRC 436E1452
Copy CRC 436E1452
Cannot be verified as accurate (confidence 1) [9F5F79DF], AccurateRip returned [7B4BDFFD]
Copy OK

Track 18

Filename E:\Music Library\Commercial Releases\The Rolling Stones [No. 2] (2002 Reissue CD Maximum CDM 1202-1039;04)\The Rolling Stones The Rolling Stones No. 2 18 Look What You've Done.wav

Peak level 94.9 %
Track quality 100.0 %
Test CRC 36B4146A
Copy CRC 36B4146A
Cannot be verified as accurate (confidence 1) [44F2BE41], AccurateRip returned [EED9845D]
Copy OK

Track 19

Filename E:\Music Library\Commercial Releases\The Rolling Stones [No. 2] (2002 Reissue CD Maximum CDM 1202-1039;04)\The Rolling Stones The Rolling Stones No. 2 19 Rice Crispies Ad.wav

Peak level 81.4 %
Track quality 100.0 %
Test CRC C2E98483
Copy CRC C2E98483
Cannot be verified as accurate (confidence 1) [9E6BDA2D], AccurateRip returned [3193E5F7]
Copy OK

Track 20

Filename E:\Music Library\Commercial Releases\The Rolling Stones [No. 2] (2002 Reissue CD Maximum CDM 1202-1039;04)\The Rolling Stones The Rolling Stones No. 2 20 As Time Goes By (demo - unreleased).wav

Peak level 83.4 %
Track quality 99.9 %
Test CRC 49EFA45B
Copy CRC 49EFA45B
Cannot be verified as accurate (confidence 1) [086A8FA8], AccurateRip returned [CB66E123]
Copy OK

No tracks could be verified as accurate
You may have a different pressing from the one(s) in the database

No errors occurred

End of status report
REM GENRE Rock
REM DATE 1965
REM DISCID 0B0CE814
REM COMMENT "ExactAudioCopy v0.99pb5"
FILE "The Rolling Stones The Rolling Stones No. 2 01 Everybody Needs Somebody to Love.wav" WAVE
TRACK 01 AUDIO
INDEX 01 00:00:00
FILE "The Rolling Stones The Rolling Stones No. 2 02 Down Home Girl.wav" WAVE
TRACK 02 AUDIO
INDEX 01 00:00:00
FILE "The Rolling Stones The Rolling Stones No. 2 03 You Can't Catch Me.wav" WAVE
TRACK 03 AUDIO
INDEX 01 00:00:00
FILE "The Rolling Stones The Rolling Stones No. 2 04 Time Is On My Side.wav" WAVE
TRACK 04 AUDIO
INDEX 01 00:00:00
FILE "The Rolling Stones The Rolling Stones No. 2 05 What a Shame.wav" WAVE
TRACK 05 AUDIO
INDEX 01 00:00:00
FILE "The Rolling Stones The Rolling Stones No. 2 06 Grown Up Wrong.wav" WAVE
TRACK 06 AUDIO
INDEX 01 00:00:00
FILE "The Rolling Stones The Rolling Stones No. 2 07 Down the Road Apiece.wav" WAVE
TRACK 07 AUDIO
INDEX 01 00:00:00
FILE "The Rolling Stones The Rolling Stones No. 2 08 Under the Boardwalk.wav" WAVE
TRACK 08 AUDIO
INDEX 01 00:00:00
FILE "The Rolling Stones The Rolling Stones No. 2 09 I Can't Be Satisfied.wav" WAVE
TRACK 09 AUDIO
INDEX 01 00:00:00
FILE "The Rolling Stones The Rolling Stones No. 2 10 Pain in My Heart.wav" WAVE
TRACK 10 AUDIO
INDEX 01 00:00:00
FILE "The Rolling Stones The Rolling Stones No. 2 11 Off the Hook.wav" WAVE
TRACK 11 AUDIO
INDEX 01 00:00:00
FILE "The Rolling Stones The Rolling Stones No. 2 12 Suzie-Q.wav" WAVE
TRACK 12 AUDIO
INDEX 01 00:00:00
FILE "The Rolling Stones The Rolling Stones No. 2 13 Everybody Needs Somebody to Love (Version 1).wav" WAVE
TRACK 13 AUDIO
INDEX 01 00:00:00
FILE "The Rolling Stones The Rolling Stones No. 2 14 Time Is On My Side (Version 1).wav" WAVE
TRACK 14 AUDIO
INDEX 01 00:00:00
FILE "The Rolling Stones The Rolling Stones No. 2 15 Surprise, Surprise (Saturday Club Sampler).wav" WAVE
TRACK 15 AUDIO
INDEX 01 00:00:00
FILE "The Rolling Stones The Rolling Stones No. 2 16 Try a Little Harder (basic mix).wav" WAVE
TRACK 16 AUDIO
INDEX 01 00:00:00
FILE "The Rolling Stones The Rolling Stones No. 2 17 Congratulations.wav" WAVE
TRACK 17 AUDIO
INDEX 01 00:00:00
FILE "The Rolling Stones The Rolling Stones No. 2 18 Look What You've Done.wav" WAVE
TRACK 18 AUDIO
INDEX 01 00:00:00
FILE "The Rolling Stones The Rolling Stones No. 2 19 Rice Crispies Ad.wav" WAVE
TRACK 19 AUDIO
INDEX 01 00:00:00
FILE "The Rolling Stones The Rolling Stones No. 2 20 As Time Goes By (demo - unreleased).wav" WAVE
TRACK 20 AUDIO
INDEX 01 00:00:00


Released:
15 January 1965
Recorded: 10–11 and 24–26 June, 2 and 28–29 September, 2 and 8 November 1964; Chess Studios, Chicago, Illinois, United States; RCA
Studios, Hollywood, California, United States; and Regent Sound Studio, London, United Kingdom
Label: Decca

The Rolling Stones:
Mick Jagger – lead vocals, harmonica, tambourine, percussion
Keith Richards – guitars, backing vocals
Brian Jones – guitar, slide guitar, backing vocals
Charlie Watts – drums and percussion
Bill Wyman – bass guitar, backing vocals

Additional musicians:
Jack Nitzsche – piano, 'Nitzsche' phone, tambourine
Ian Stewart – piano
David Thomson - Backing vocals on 'Off The Hook'
Тип рипа: image+.cue
Продолжительность: 33:51
Источник: dafnaplus
Трэклист:
1. Mercy Mercy (2:49)
2. Hitch Hike (2:27)
3. The Last Time (3:43)
4. That's How Strong My Love Is (2:26)
5. Good Times (2:01)
6. I'm All Right (Live) (2:24)
7. Satisfaction (3:46)
8. Cry To Me (3:10)
9. The Under Assistant West Coast Promotion Man (3:10)
10. Play With Fire (2:17)
11. The Spider And The Fly (3:41)
12. One More Try (1:57)
Exact Audio Copy V0.99 prebeta 5 from 4. May 2009

EAC extraction logfile from 4. August 2010, 22:31

The Rolling Stones / Out Of Our Heads

Used drive : TSSTcorpCD/DVDW SH-S183A Adapter: 1 ID: 0

Read mode : Secure
Utilize accurate stream : Yes
Defeat audio cache : Yes
Make use of C2 pointers : No

Read offset correction : 6
Overread into Lead-In and Lead-Out : No
Fill up missing offset samples with silence : Yes
Delete leading and trailing silent blocks : No
Null samples used in CRC calculations : Yes
Used interface : Installed external ASPI interface

Used output format : User Defined Encoder
Selected bitrate : 1024 kBit/s
Quality : High
Add ID3 tag : No
Command line compressor : C:\Program Files\Exact Audio Copy\Flac\flac.exe
Additional command line options : -8 -V -T "ARTIST=%a" -T "TITLE=%t" -T "ALBUM=%g" -T "DATE=%y" -T "TRACKNUMBER=%n" -T "TOTALTRACKS=%x" -T "GENRE=%m" -T "ALBUM ARTIST=%v" -T "ALBUMARTIST=%v" -T "COMMENT=EAC V0.99 prebeta 5, Secure Mode, AccurateRip, FLAC -8

TOC of the extracted CD

Track | Start | Length | Start sector | End sector
---------------------------------------------------------
1 | 0:00.33 | 2:49.00 | 33 | 12707
2 | 2:49.33 | 2:27.10 | 12708 | 23742
3 | 5:16.43 | 3:43.10 | 23743 | 40477
4 | 8:59.53 | 2:26.47 | 40478 | 51474
5 | 11:26.25 | 2:01.18 | 51475 | 60567
6 | 13:27.43 | 2:24.27 | 60568 | 71394
7 | 15:51.70 | 3:46.23 | 71395 | 88367
8 | 19:38.18 | 3:10.62 | 88368 | 102679
9 | 22:49.05 | 3:10.28 | 102680 | 116957
10 | 25:59.33 | 2:17.42 | 116958 | 127274
11 | 28:17.00 | 3:41.15 | 127275 | 143864
12 | 31:58.15 | 1:57.40 | 143865 | 152679

Range status and errors

Selected range

Filename J:\Rolling Stones - Out Of Our Heads\Cd\The Rolling Stones - Out Of Our Heads.wav

Peak level 67.1 %
Range quality 100.0 %
Test CRC 48B55DCB
Copy CRC 48B55DCB
Copy OK

No errors occurred

AccurateRip summary

Track 1 accurately ripped (confidence 11) [98C6A877]
Track 2 accurately ripped (confidence 12) [7B8B01AC]
Track 3 accurately ripped (confidence 12) [848460B0]
Track 4 accurately ripped (confidence 12) [C6356D1D]
Track 5 accurately ripped (confidence 12) [3516BD8B]
Track 6 accurately ripped (confidence 11) [06F79990]
Track 7 accurately ripped (confidence 11) [75C2CE73]
Track 8 accurately ripped (confidence 11) [50518D34]
Track 9 accurately ripped (confidence 12) [7D3A27D2]
Track 10 accurately ripped (confidence 11) [D9A10D34]
Track 11 accurately ripped (confidence 12) [B3158EAE]
Track 12 accurately ripped (confidence 12) [B4298B5F]

All tracks accurately ripped

End of status report
Тип рипа: image+.cue
Продолжительность: 33:38
Источник: dafnaplus
Трэклист:
1. Mercy Mercy 2:44
2. Hitch Hike 2:25
3. The Last Time 3:41
4. That's How Strong My Love Is 2:25
5. Good Times 1:58
6. I'm Alright 2:23
7. (I Can't Get No) Satisfaction 3:42
8. Cry To Me 3:09
9. The Under Assistant West Coast Promotion Man 3:07
10. Play With Fire 2:13
11. The Spider And The Fly 3:38
12. One More Try 1:58
Exact Audio Copy V0.99 prebeta 5 from 4. May 2009

EAC extraction logfile from 5. April 2010, 19:54

The Rolling Stones / Out Of Our Heads (2002 Hybrid SACD Edition)

Used drive : TSSTcorpCD/DVDW SH-S183A Adapter: 1 ID: 0

Read mode : Secure
Utilize accurate stream : Yes
Defeat audio cache : Yes
Make use of C2 pointers : No

Read offset correction : 6
Overread into Lead-In and Lead-Out : No
Fill up missing offset samples with silence : Yes
Delete leading and trailing silent blocks : No
Null samples used in CRC calculations : Yes
Used interface : Installed external ASPI interface

Used output format : User Defined Encoder
Selected bitrate : 1024 kBit/s
Quality : High
Add ID3 tag : No
Command line compressor : C:\Program Files\Exact Audio Copy\Flac\flac.exe
Additional command line options : -8 -V -T "ARTIST=%a" -T "TITLE=%t" -T "ALBUM=%g" -T "DATE=%y" -T "TRACKNUMBER=%n" -T "TOTALTRACKS=%x" -T "GENRE=%m" -T "ALBUM ARTIST=%v" -T "ALBUMARTIST=%v" -T "COMMENT=EAC V0.99 prebeta 5, Secure Mode, AccurateRip, FLAC -8

TOC of the extracted CD

Track | Start | Length | Start sector | End sector
---------------------------------------------------------
1 | 0:00.00 | 2:47.05 | 0 | 12529
2 | 2:47.05 | 2:26.10 | 12530 | 23489
3 | 5:13.15 | 3:42.30 | 23490 | 40169
4 | 8:55.45 | 2:25.47 | 40170 | 51091
5 | 11:21.17 | 1:59.00 | 51092 | 60016
6 | 13:20.17 | 2:25.10 | 60017 | 70901
7 | 15:45.27 | 3:43.33 | 70902 | 87659
8 | 19:28.60 | 3:09.37 | 87660 | 101871
9 | 22:38.22 | 3:07.35 | 101872 | 115931
10 | 25:45.57 | 2:15.05 | 115932 | 126061
11 | 28:00.62 | 3:39.53 | 126062 | 142539
12 | 31:40.40 | 1:58.02 | 142540 | 151391

Range status and errors

Selected range

Filename J:\Audio-CD\Rolling Stones\1965 Rolling Stones-Out Of Our Heads\CD\The Rolling Stones - Out Of Our Heads (2002 Hybrid SACD Edition).wav

Peak level 99.8 %
Range quality 100.0 %
Test CRC 9E1D9CCF
Copy CRC 9E1D9CCF
Copy OK

No errors occurred

AccurateRip summary

Track 1 accurately ripped (confidence 13) [967627DE]
Track 2 accurately ripped (confidence 13) [73CC991B]
Track 3 accurately ripped (confidence 12) [92C35326]
Track 4 accurately ripped (confidence 13) [1D32DF7D]
Track 5 accurately ripped (confidence 13) [A0329121]
Track 6 accurately ripped (confidence 12) [C574BC76]
Track 7 accurately ripped (confidence 12) [6CFE9E85]
Track 8 accurately ripped (confidence 13) [2E197ACC]
Track 9 accurately ripped (confidence 13) [C03E7410]
Track 10 accurately ripped (confidence 13) [96013725]
Track 11 accurately ripped (confidence 14) [22B26384]
Track 12 accurately ripped (confidence 10) [62BB6F32]

All tracks accurately ripped

End of status report
Тип рипа: tracks+.cue
Продолжительность: 29:21
Источник: fdoortiz
Трэклист:
1. She Said Yeah (1:34)
2. Mercy, Mercy (2:44)
3. Hitch Hike (2:25)
4. That's How Strong My Love Is (2:25)
5. Good Times (1:58)
6. Gotta Get Away (2:06)
7. Talkin' 'Bout You (2:30)
8. Cry To Me (3:09)
9. Oh Baby (2:07)
10. Heart Of Stone (2:50)
11. The Under Assistant West Coast Promotion Man (3:07)
12. I'm Free
Exact Audio Copy V0.99 prebeta 5 from 4. May 2009

EAC extraction logfile from 3. January 2011, 13:59

The Rolling Stones / Out of Our Heads [UK]

Used drive : HL-DT-STDVDRAM GH22NS40 Adapter: 1 ID: 1

Read mode : Secure
Utilize accurate stream : Yes
Defeat audio cache : Yes
Make use of C2 pointers : No

Read offset correction : 667
Overread into Lead-In and Lead-Out : No
Fill up missing offset samples with silence : Yes
Delete leading and trailing silent blocks : No
Null samples used in CRC calculations : Yes
Used interface : Native Win32 interface for Win NT & 2000
Gap handling : Appended to previous track

Used output format : User Defined Encoder
Selected bitrate : 128 kBit/s
Quality : High
Add ID3 tag : No
Command line compressor : C:\Program Files\Exact Audio Copy\Flac\flac.exe
Additional command line options : -V -8 -T "artist=%a" -T "title=%t" -T "album=%g" -T "date=%y" -T "tracknumber=%n" -T "genre=%m" %s

TOC of the extracted CD

Track | Start | Length | Start sector | End sector
---------------------------------------------------------
1 | 0:00.00 | 1:35.62 | 0 | 7186
2 | 1:35.62 | 2:46.65 | 7187 | 19701
3 | 4:22.52 | 2:26.15 | 19702 | 30666
4 | 6:48.67 | 2:25.50 | 30667 | 41591
5 | 9:14.42 | 1:59.40 | 41592 | 50556
6 | 11:14.07 | 2:07.50 | 50557 | 60131
7 | 13:21.57 | 2:32.05 | 60132 | 71536
8 | 15:53.62 | 3:10.08 | 71537 | 85794
9 | 19:03.70 | 2:09.40 | 85795 | 95509
10 | 21:13.35 | 2:51.10 | 95510 | 108344
11 | 24:04.45 | 3:07.62 | 108345 | 122431
12 | 27:12.32 | 2:23.43 | 122432 | 133199

Track 1

Filename C:\Music\The Rolling Stones - 1965 - Out of Our Heads [UK] [FLAC]\01 She Said Yeah.wav

Pre-gap length 0:00:02.00

Peak level 88.0 %
Track quality 100.0 %
Test CRC F855EF4F
Copy CRC F855EF4F
Accurately ripped (confidence 30) [02D70554]
Copy OK

Track 2

Filename C:\Music\The Rolling Stones - 1965 - Out of Our Heads [UK] [FLAC]\02 Mercy, Mercy.wav

Pre-gap length 0:00:01.46

Peak level 96.7 %
Track quality 100.0 %
Test CRC E67E42AF
Copy CRC E67E42AF
Accurately ripped (confidence 30) [FD53425C]
Copy OK

Track 3

Filename C:\Music\The Rolling Stones - 1965 - Out of Our Heads [UK] [FLAC]\03 Hitch Hike.wav

Pre-gap length 0:00:02.20

Peak level 90.8 %
Track quality 100.0 %
Test CRC 5BA6CB44
Copy CRC 5BA6CB44
Accurately ripped (confidence 30) [A1A91145]
Copy OK

Track 4

Filename C:\Music\The Rolling Stones - 1965 - Out of Our Heads [UK] [FLAC]\04 That's How Strong My Love Is.wav

Pre-gap length 0:00:00.80

Peak level 98.8 %
Track quality 100.0 %
Test CRC 0A03A126
Copy CRC 0A03A126
Accurately ripped (confidence 30) [639C47F5]
Copy OK

Track 5

Filename C:\Music\The Rolling Stones - 1965 - Out of Our Heads [UK] [FLAC]\05 Good Times.wav

Pre-gap length 0:00:00.42

Peak level 95.8 %
Track quality 99.9 %
Test CRC 4D3F7699
Copy CRC 4D3F7699
Accurately ripped (confidence 30) [9A667F3D]
Copy OK

Track 6

Filename C:\Music\The Rolling Stones - 1965 - Out of Our Heads [UK] [FLAC]\06 Gotta Get Away.wav

Pre-gap length 0:00:01.40

Peak level 95.9 %
Track quality 100.0 %
Test CRC B97E7408
Copy CRC B97E7408
Accurately ripped (confidence 30) [ED9E5971]
Copy OK

Track 7

Filename C:\Music\The Rolling Stones - 1965 - Out of Our Heads [UK] [FLAC]\07 I'm Talking About You.wav

Pre-gap length 0:00:01.16

Peak level 96.5 %
Track quality 99.9 %
Test CRC A508E266
Copy CRC A508E266
Accurately ripped (confidence 30) [5D25302C]
Copy OK

Track 8

Filename C:\Music\The Rolling Stones - 1965 - Out of Our Heads [UK] [FLAC]\08 Cry To Me.wav

Pre-gap length 0:00:01.13

Peak level 91.0 %
Track quality 100.0 %
Test CRC 4E970615
Copy CRC 4E970615
Accurately ripped (confidence 30) [EEA2C117]
Copy OK

Track 9

Filename C:\Music\The Rolling Stones - 1965 - Out of Our Heads [UK] [FLAC]\09 Oh Baby (We Got a Good Thing Goin').wav

Pre-gap length 0:00:01.10

Peak level 84.6 %
Track quality 100.0 %
Test CRC 917E6F38
Copy CRC 917E6F38
Accurately ripped (confidence 30) [8B0FBD48]
Copy OK

Track 10

Filename C:\Music\The Rolling Stones - 1965 - Out of Our Heads [UK] [FLAC]\10 Heart of Stone.wav

Pre-gap length 0:00:01.64

Peak level 93.2 %
Track quality 100.0 %
Test CRC B99B3B1A
Copy CRC B99B3B1A
Accurately ripped (confidence 30) [AE5B156E]
Copy OK

Track 11

Filename C:\Music\The Rolling Stones - 1965 - Out of Our Heads [UK] [FLAC]\11 The Under Assistant West Coast Promotion Man.wav

Pre-gap length 0:00:00.77

Peak level 94.0 %
Track quality 100.0 %
Test CRC BC0DE0AF
Copy CRC BC0DE0AF
Accurately ripped (confidence 30) [58DA7D68]
Copy OK

Track 12

Filename C:\Music\The Rolling Stones - 1965 - Out of Our Heads [UK] [FLAC]\12 I'm Free.wav

Pre-gap length 0:00:00.49

Peak level 77.3 %
Track quality 100.0 %
Test CRC F759182D
Copy CRC F759182D
Accurately ripped (confidence 30) [B0B83D28]
Copy OK

All tracks accurately ripped

No errors occurred

End of status report
REM GENRE Rock
REM DATE 1965
REM DISCID 9B06F00C
REM COMMENT "ExactAudioCopy v0.99pb5"
FILE "01 She Said Yeah.wav" WAVE
TRACK 01 AUDIO
INDEX 01 00:00:00
TRACK 02 AUDIO
INDEX 00 01:34:27
FILE "02 Mercy, Mercy.wav" WAVE
INDEX 01 00:00:00
TRACK 03 AUDIO
INDEX 00 02:44:50
FILE "03 Hitch Hike.wav" WAVE
INDEX 01 00:00:00
TRACK 04 AUDIO
INDEX 00 02:25:30
FILE "04 That's How Strong My Love Is.wav" WAVE
INDEX 01 00:00:00
TRACK 05 AUDIO
INDEX 00 02:25:18
FILE "05 Good Times.wav" WAVE
INDEX 01 00:00:00
TRACK 06 AUDIO
INDEX 00 01:58:10
FILE "06 Gotta Get Away.wav" WAVE
INDEX 01 00:00:00
TRACK 07 AUDIO
INDEX 00 02:06:38
FILE "07 I'm Talking About You.wav" WAVE
INDEX 01 00:00:00
TRACK 08 AUDIO
INDEX 00 02:30:70
FILE "08 Cry To Me.wav" WAVE
INDEX 01 00:00:00
TRACK 09 AUDIO
INDEX 00 03:09:00
FILE "09 Oh Baby (We Got a Good Thing Goin').wav" WAVE
INDEX 01 00:00:00
TRACK 10 AUDIO
INDEX 00 02:07:67
FILE "10 Heart of Stone.wav" WAVE
INDEX 01 00:00:00
TRACK 11 AUDIO
INDEX 00 02:50:27
FILE "11 The Under Assistant West Coast Promotion Man.wav" WAVE
INDEX 01 00:00:00
TRACK 12 AUDIO
INDEX 00 03:07:25
FILE "12 I'm Free.wav" WAVE
INDEX 01 00:00:00


Released:
24 September 1965 (UK)
30 July 1965 (USA)
Recorded:
2 November 1964 – 6 September 1965 (UK release)
2 November 1964 – 12 May 1965 (USA release)
Label:
Decca (UK)
London (USA)

The Rolling Stones:
Mick Jagger – lead vocals, harmonica and percussion
Keith Richards – electric and acoustic guitar and backing vocals
Brian Jones – electric and acoustic guitar, harmonica, organ, backing vocals
Charlie Watts – drums and percussion
Bill Wyman – bass guitar, backing vocals

Additional musicians:
Jack Nitzsche – organ, piano and percussion
Phil Spector – bass guitar on "Play with Fire"
Ian Stewart – piano


Трекер:  [ 09-Дек-2012 21:49 ]

  

Скачать .torrent

Размер .torrent файла 690 KB


Размер: 72.08 GB
Хэш (hash) релиза: e968e0ea77424453934cc533b71d693c7a115427

Торренты, похожие на The Rolling Stones - Discography скачать торрент

Форум Название Автор Размер S L Добавлен
Rосk | Mеtаl | Аltеrnаtivе, Рunk, Indереndеnt (mр3) ·· (Rock) The Rolling Stones - Discography (30 Albums, 10 Live Albums, 20 Compilations, Singles, 10 CDs Ultra Rare Trax) - 1964-2011, MP3, 320 kbps Devil_Black 1589542802514.8 GB 0 0 1326407663

01:34

13-Янв-12

Rосk | Mеtаl | Аltеrnаtivе, Рunk, Indереndеnt (mр3) ·· (Rock | Blues | British Blues | Blues Rock | Hard Rock | Psychedelic Rock | Classic Rock) The Rolling Stones [with The Beatles, John Lennon, Muddy Waters] - Discography [572 Releases] - 1962 - 2016, MP3, 320 kbps Galfimbul 7217056049867.21 GB 0 0 1490069827

07:17

21-Мар-17

Rосk | Mеtаl | Аltеrnаtivе, Рunk, Indереndеnt (mр3) ·· (Rock | Blues | British Blues | Blues Rock | Hard Rock | Psychedelic Rock | Classic Rock) The Rolling Stones [with The Beatles, John Lennon, Muddy Waters] - Discography [573 Releases] - 1962 - 2016, MP3, 320 kbps Galfimbul 7229504211867.33 GB 0 0 1489724237

07:17

17-Мар-17

Rосk | Mеtаl | Аltеrnаtivе, Рunk, Indереndеnt (mр3) ·· (Blues Rock) The Rolling Stones [with The Beatles] - Discography [578 Releases] - 1964 - 2016, MP3, 320 kbps Galfimbul 7306365786068.05 GB 0 0 1489644808

09:13

16-Мар-17

Rосk | Mеtаl | Аltеrnаtivе, Рunk, Indереndеnt (losslеss) ·· (Rock) The Rolling Stones - Studio Discography - 25 Альбомов (UK и USA версии) [1964 - 2005], FLAC (image+.cue)/(tracks+.cue), lossless dnickn 87467998158.15 GB 0 0 1299711917

02:05

10-Мар-11

Еще никто не оставлял запись к записи скачать торрент The Rolling Stones - Discography . Будь первым!

!Обратная связь