Скачать через торрент музыку Foghat - Road Cases бесплатно без регистрации torrent

Если у вас наблюдаются проблемы со скриншотами, переходом по ссылками, скачиванием торрентов - проблемы в блокировщике рекламы AdBlock. #хорошегоДня!


Статистика раздачи
Размер:  706 MB   |    Зарегистрирован:  4 года 8 месяцев   |    .torrent скачан:  8 раз   |   
Раздают:  1  
   
Загрузка...
 
Автор Сообщение

Galfimbul

avatar Galfimbul


Foghat - Road Cases (Live)

Жанр: Hard Blues Rock
Страна-производитель диска: Germany
Год издания диска: 2001
Издатель (лейбл): SPV Recordings
Номер по каталогу: SPV 085-71072 DCD
Страна: UK
Аудио кодек: FLAC (*.flac)
Тип рипа: image+.cue
Битрейт аудио: lossless
Продолжительность: 01:28:19
Источник (релизер): Sket4er
Наличие сканов в содержимом раздачи: да
Треклист:
01. I Just Wanna Make Love To You 08:45
02. Drivin' Wheel 06:55
03. Fool For The City 05:06
04. Chevrolet 04:18
05. Soakin' The Bone 03:59
06. Sweet Home Chicago 07:50
07. Rock Your House 06:10
Exact Audio Copy V1.0 beta 3 from 29. August 2011

EAC extraction logfile from 2. December 2012, 18:42

Foghat / Road Cases (Disc - 1)

Used drive : Optiarc DVD RW AD-5280S Adapter: 2 ID: 2

Read mode : SecureUtilize accurate stream : YesDefeat audio cache : YesMake use of C2 pointers : No

Read offset correction : 48Overread into Lead-In and Lead-Out : NoFill up missing offset samples with silence : YesDelete leading and trailing silent blocks : NoNull samples used in CRC calculations : YesUsed interface : Installed external ASPI interface

Used output format : User Defined EncoderSelected bitrate : 768 kBit/sQuality : HighAdd ID3 tag : NoCommand line compressor : C:\Program Files\Exact Audio Copy\Flac\flac.exeAdditional command line options : -V -8 -T "Date=%year%" -T "Genre=%genre%" %source%

TOC of the extracted CD

Track | Start | Length | Start sector | End sector --------------------------------------------------------- 1 | 0:00.00 | 8:45.04 | 0 | 39378 2 | 8:45.04 | 6:55.29 | 39379 | 70532 3 | 15:40.33 | 5:06.22 | 70533 | 93504 4 | 20:46.55 | 4:18.09 | 93505 | 112863 5 | 25:04.64 | 3:59.69 | 112864 | 130857 6 | 29:04.58 | 7:50.50 | 130858 | 166157 7 | 36:55.33 | 6:10.59 | 166158 | 193966

Range status and errors

Selected range

Filename F:\Sket4er\Foghat - Road Cases (2cd) 2001 [flac]\Disc - 1\Foghat - Road Cases (Disc - 1).wav

Peak level 100.0 % Extraction speed 3.8 X Range quality 99.9 % Test CRC 7A32C89B Copy CRC 7A32C89B Copy OK

No errors occurred

AccurateRip summary

Track 1 cannot be verified as accurate (confidence 2) [B1E0DFEF], AccurateRip returned [27A534F6] (AR v2)Track 2 cannot be verified as accurate (confidence 2) [DF04F5C3], AccurateRip returned [C710F6ED] (AR v2)Track 3 cannot be verified as accurate (confidence 2) [DA1FF94B], AccurateRip returned [439F27CC] (AR v2)Track 4 cannot be verified as accurate (confidence 2) [AC4170EE], AccurateRip returned [81358ADF] (AR v2)Track 5 cannot be verified as accurate (confidence 2) [345F4C8B], AccurateRip returned [5B0A7AFD] (AR v2)Track 6 cannot be verified as accurate (confidence 2) [4C8166CB], AccurateRip returned [971D3867] (AR v2)Track 7 cannot be verified as accurate (confidence 2) [F22AED2B], AccurateRip returned [BBFCC86D] (AR v2)

No tracks could be verified as accurateYou may have a different pressing from the one(s) in the database

End of status report

==== Log checksum 12F781C3AF435DEEB6D538B068B4AC2300542598EACAA1B6CEDB00B158F03776 ====
REM GENRE "Boogie Rock"REM DATE 2001REM DISCID 580A1A07REM COMMENT "ExactAudioCopy v1.0b3"PERFORMER "Foghat"TITLE "Road Cases (Disc - 1)"FILE "Foghat - Road Cases (Disc - 1).flac" WAVE TRACK 01 AUDIO TITLE "I Just Wanna Make Love To You" PERFORMER "Foghat" INDEX 01 00:00:00 TRACK 02 AUDIO TITLE "Drivin' Wheel" PERFORMER "Foghat" INDEX 01 08:45:04 TRACK 03 AUDIO TITLE "Fool For The City" PERFORMER "Foghat" INDEX 01 15:40:33 TRACK 04 AUDIO TITLE "Chevrolet" PERFORMER "Foghat" INDEX 01 20:46:55 TRACK 05 AUDIO TITLE "Soakin' The Bone" PERFORMER "Foghat" INDEX 01 25:04:64 TRACK 06 AUDIO TITLE "Sweet Home Chicago" PERFORMER "Foghat" INDEX 01 29:04:58 TRACK 07 AUDIO TITLE "Rock Your House" PERFORMER "Foghat" INDEX 01 36:55:33
-----------------------

DON'T MODIFY THIS FILE

-----------------------

PERFORMER: auCDtect Task Manager, ver. 1.5.1RC4 build 1.5.1.5Copyright (c) 2008-2010 y-soft. All rights reservedhttp://y-soft.org

ANALYZER: auCDtect: CD records authenticity detector, version 0.8.2Copyright (c) 2004 Oleg Berngardt. All rights reserved.Copyright (c) 2004 Alexander Djourik. All rights reserved.

FILE: Foghat - Road Cases (Disc - 1).flac Size: 352842319 Hash: C915334F84DBC25551E7E6F7285BE8DE Accuracy: -m8 Conclusion: CDDA 100% Signature: 27CCD1575CE1B7AAA059D9A9BFEAB90A260AAAEC
01. It's Too Late 06:17
02. Stone Blue 07:16
03. It Hurts Me Too 08:11
04. Bad Bad Lovin' 04:14
05. Slow Ride 09:15
Bonus Studio Tracks:
06. Angel Of Mercy 05:06
07. Tear You Down 04:49
Exact Audio Copy V1.0 beta 3 from 29. August 2011

EAC extraction logfile from 2. December 2012, 19:35

Foghat / Road Cases (Disc - 2)

Used drive : Optiarc DVD RW AD-5280S Adapter: 2 ID: 2

Read mode : SecureUtilize accurate stream : YesDefeat audio cache : YesMake use of C2 pointers : No

Read offset correction : 48Overread into Lead-In and Lead-Out : NoFill up missing offset samples with silence : YesDelete leading and trailing silent blocks : NoNull samples used in CRC calculations : YesUsed interface : Installed external ASPI interface

Used output format : User Defined EncoderSelected bitrate : 768 kBit/sQuality : HighAdd ID3 tag : NoCommand line compressor : C:\Program Files\Exact Audio Copy\Flac\flac.exeAdditional command line options : -V -8 -T "Date=%year%" -T "Genre=%genre%" %source%

TOC of the extracted CD

Track | Start | Length | Start sector | End sector --------------------------------------------------------- 1 | 0:00.00 | 6:17.70 | 0 | 28344 2 | 6:17.70 | 7:16.54 | 28345 | 61098 3 | 13:34.49 | 8:11.49 | 61099 | 97972 4 | 21:46.23 | 4:14.43 | 97973 | 117065 5 | 26:00.66 | 9:15.52 | 117066 | 158742 6 | 35:16.43 | 5:06.48 | 158743 | 181740 7 | 40:23.16 | 4:49.57 | 181741 | 203472

Range status and errors

Selected range

Filename F:\Sket4er\Foghat - Road Cases (2cd) 2001 [flac]\Disc - 2\Foghat - Road Cases (Disc - 2).wav

Peak level 100.0 % Extraction speed 3.9 X Range quality 100.0 % Test CRC 678D887E Copy CRC 678D887E Copy OK

No errors occurred

AccurateRip summary

Track 1 cannot be verified as accurate (confidence 5) [1CD3C803], AccurateRip returned [5E092010] (AR v2)Track 2 cannot be verified as accurate (confidence 5) [B0E8784B], AccurateRip returned [1F066B47] (AR v2)Track 3 cannot be verified as accurate (confidence 5) [20610755], AccurateRip returned [12DA80C7] (AR v2)Track 4 cannot be verified as accurate (confidence 5) [AE8D572F], AccurateRip returned [7404FBC2] (AR v2)Track 5 cannot be verified as accurate (confidence 5) [2D99752E], AccurateRip returned [E0788AD5] (AR v2)Track 6 cannot be verified as accurate (confidence 5) [CEE359C8], AccurateRip returned [7047E170] (AR v2)Track 7 cannot be verified as accurate (confidence 5) [E9B0E881], AccurateRip returned [579F087E] (AR v2)

No tracks could be verified as accurateYou may have a different pressing from the one(s) in the database

End of status report

==== Log checksum 75DB211E10FB5CB36C45BE8C114CC9CBF50828863233F944B018B3D0EC7ED1F7 ====
REM GENRE "Boogie Rock"REM DATE 2001REM DISCID 570A9807REM COMMENT "ExactAudioCopy v1.0b3"PERFORMER "Foghat"TITLE "Road Cases (Disc - 2)"FILE "Foghat - Road Cases (Disc - 2).flac" WAVE TRACK 01 AUDIO TITLE "It's Too Late" PERFORMER "Foghat" INDEX 01 00:00:00 TRACK 02 AUDIO TITLE "Stone Blue" PERFORMER "Foghat" INDEX 01 06:17:70 TRACK 03 AUDIO TITLE "It Hurts Me Too" PERFORMER "Foghat" INDEX 01 13:34:49 TRACK 04 AUDIO TITLE "Bad Bad Lovin'" PERFORMER "Foghat" INDEX 01 21:46:23 TRACK 05 AUDIO TITLE "Slow Ride" PERFORMER "Foghat" INDEX 01 26:00:66 TRACK 06 AUDIO TITLE "Angel Of Mercy (Bonus Studio Track)" PERFORMER "Foghat" INDEX 01 35:16:43 TRACK 07 AUDIO TITLE "Tear You Down (Bonus Studio Track)" PERFORMER "Foghat" INDEX 01 40:23:16
-----------------------

DON'T MODIFY THIS FILE

-----------------------

PERFORMER: auCDtect Task Manager, ver. 1.5.1RC4 build 1.5.1.5Copyright (c) 2008-2010 y-soft. All rights reservedhttp://y-soft.org

ANALYZER: auCDtect: CD records authenticity detector, version 0.8.2Copyright (c) 2004 Oleg Berngardt. All rights reserved.Copyright (c) 2004 Alexander Djourik. All rights reserved.

FILE: Foghat - Road Cases (Disc - 2).flac Size: 365584543 Hash: 15B48C7032A2E8D5D9BAFD098EA4233D Accuracy: -m8 Conclusion: CDDA 100% Signature: 652C40D08EDD0D984BFCDA6F8B5FA7E95ECD2B89
Доп. информация:
"Lonesome" Dave Peverett - vocals, guitar 
Bryan Bassett - guitar 
Tony Stevens - bass 
Roger Earl - drums
Смесь блюз-рока, харда, буги и рок-н-ролла, исполняемая этой командой, сделала ее весьма популярной в середине 70-х. Группу организовали в 1971 году выходцы из "Savoy Brown" Роджер Эрл (ударные), Дэйв Певеретт (р. 16 апреля 1943; гитара, вокал) и Тони Стивенс (бас), объединившиеся со слайд-гитаристом Родом Прайсом (у. 22 марта 2005). Заключив контракт с лейблом Альберта Гроссмана "Bearsville Records", "Foghat" в 1972-м дебютировали с одноименным альбомом.
Благодаря удачному каверу на "I Just Want To Make Love To You" Вилли Диксона коллектив получил признание в Штатах, а сам лонгплей занял 127-ю строчку "Billboard". Используя формулу упрощенного американизированного буги, команда испекла второй виниловый блин, принесший ей первое золото.Две следующих работы, "Energized" и "Rock And Roll Outlaws", а также бесконечные гастроли по Штатам укрепили статус "Foghat", но главный прорыв был еще впереди. В 1975 году группа выпустила диск "Fool For The City", содержавший убойнейшую композицию "Slow Ride". Эта ураганная вещица угодила в Топ 40 и помогла альбому преодолеть платиновую отметку.Foghat Незадолго до записи "Fool For The City" Стивенс ушел заниматься другими делами, а его место занял американец Крэйг МакГрегор. Во второй половине 70-х "Foghat" подарили слушателям такие хиты как "Drivin' Wheel", "Stone Blue", "Third Time Lucky", "Somebody's Been Sleeping In My Bed", а их концертник "Foghat Live" взял двойную платину. Однако к началу 80-х положение изменилось, и пластинка "Tight Shoes", сделанная в стиле пауэр-поп, не вызвала у публики особых эмоций. Уставший от кочевой жизни и недовольный новым направлением хлопнул дверью Прайс, а его инструмент достался Эрику Катрайту. В 1981-м вышел диск "Girls To Chat & Boys To Bounce", сделанный в духе Дэйва Эдмундса и Элвиса Костелло, а в 1982-м "Foghat" изменили курс, выбросив на рынок построенный на ритм-энд-блюзовых каверах "In The Mood For Something Rude".
Впрочем, популярность команды продолжала неуклонно снижаться, и альбом "Zig-Zag Walk" стал последним релизом на "Bearsville Records". Пережив в начале 80-х еще ряд кадровых перестановок, коллектив распался, а Дэйв Пэверетт вернулся в Англию.Foghat Оставшиеся в Америке Эрл, Катрайт и МакГрегор, спустя некоторое время воссоединились и остаток десятилетия провели, гастролируя под вывесками "Kneetremblers" и "Roger Earl's Foghat". В начале 90-х Пэверетт собрал другую команду, "Lonesome Dave's Foghat", и некоторое время оба проекта вели параллельное существование. Наконец, в 1993 году с подачи продюсера Рика Рубина две половинки слились воедино, и "Foghat" вернулись в своем классическом составе. По поводу реюниона группа устроила глобальное турне и выпустила студийный альбом "Return Of The Boogie Men". Остаток 90-х коллектив провел на гастролях, а в 1998-м вышел концертник "Road Cases". Однако постоянные разъезды вновь стали причиной ухода Прайса (его сменил Брайан Бассетт), а 7 февраля 2000 года от рака скончался Дэйв Певеретт.Некоторое время проект пролежал в коме, но впоследствии музыканты решили возобновить деятельность. Наняв нового вокалиста в лице Чарли Хана, в 2003 году "Foghat" выпустили альбом "Family Joules". В 2004-м на свет появился DVD "The Official Bootleg DVD, Volume 1", после чего в команду вернулся МакГрегор. Гастрольная жизнь коллектива вновь активизировалась, а в 2007-м на прилавки магазинов лег двойной концертник "Foghat Live II".


Трекер:  [ 09-Дек-2012 21:48 ]

  

Скачать .torrent

Размер .torrent файла 15 KB


Размер: 706 MB
Хэш (hash) релиза: ebe29bfc182b6e846b24fe59fecfbeb523d18b96

Еще никто не оставлял запись к записи скачать торрент Foghat - Road Cases . Будь первым!

!Обратная связь