Скачать через торрент музыку Paul Carrack - Collected бесплатно без регистрации torrent

Если у вас наблюдаются проблемы со скриншотами, переходом по ссылками, скачиванием торрентов - проблемы в блокировщике рекламы AdBlock. #хорошегоДня!


Статистика раздачи
Размер:  1.45 GB   |    Зарегистрирован:  4 года 11 месяцев   |    .torrent скачан:  11 раз   |   
Раздают:  1  
   
Загрузка...
 
Автор Сообщение

Galfimbul

avatar Galfimbul


Paul Carrack - Collected

Жанр: Pop Rock, Soft Rock, Blue-eyed Soul
Страна-производитель диска: USA
Год издания диска: 2012
Издатель (лейбл): Universal Music B.V./USM
Номер по каталогу: 533 938-1
Страна: UK
Аудио кодек: WAVPack (*.wv)
Тип рипа: image+.cue
Битрейт аудио: lossless
Продолжительность: 03:18:51
Источник (релизер): Alexandre ZAM
Наличие сканов в содержимом раздачи: да
Треклист:
01. How Long 03:21
02. Tempted 03:57
03. Don't Shed A Tear 03:43
04. The Living Years 05:21
05. Love Will Keep Us Alive (ft. Timothy B Schmit) 04:06
06. Groovin' 02:44
07. When You Walk In the Room 03:31
08. Empty Space 04:23
09. Over My Shoulder 03:37
10. When My Little Girl Is Smiling 02:30
11. Satisfy My Soul 03:29
12. Eyes Of Blue 03:59
13. Always Better With You 03:30
14. The Way I’m Feeling Tonight 04:40
15. A Time And Place 04:51
16. It Ain't Over 04:24
17. Long Ago 04:06
18. Everybody Gets A Second Chance 03:56
Exact Audio Copy V1.0 beta 3 from 29. August 2011

EAC extraction logfile from 16. October 2012, 19:26

Paul Carrack / Paul Carrack - Collected

Used drive : TSSTcorpCDDVDW TS-H653B Adapter: 0 ID: 0

Read mode : SecureUtilize accurate stream : YesDefeat audio cache : YesMake use of C2 pointers : No

Read offset correction : 6Overread into Lead-In and Lead-Out : NoFill up missing offset samples with silence : YesDelete leading and trailing silent blocks : NoNull samples used in CRC calculations : YesUsed interface : Native Win32 interface for Win NT & 2000

Used output format : User Defined EncoderSelected bitrate : 896 kBit/sQuality : HighAdd ID3 tag : NoCommand line compressor : C:\Program Files (x86)\Exact Audio Copy\wavpack.exeAdditional command line options : -hm %source% %dest%

TOC of the extracted CD

Track | Start | Length | Start sector | End sector --------------------------------------------------------- 1 | 0:00.00 | 3:21.06 | 0 | 15080 2 | 3:21.06 | 3:57.74 | 15081 | 32929 3 | 7:19.05 | 3:43.19 | 32930 | 49673 4 | 11:02.24 | 5:21.63 | 49674 | 73811 5 | 16:24.12 | 4:06.62 | 73812 | 92323 6 | 20:30.74 | 2:44.61 | 92324 | 104684 7 | 23:15.60 | 3:31.34 | 104685 | 120543 8 | 26:47.19 | 4:23.66 | 120544 | 140334 9 | 31:11.10 | 3:37.46 | 140335 | 156655 10 | 34:48.56 | 2:30.54 | 156656 | 167959 11 | 37:19.35 | 3:29.69 | 167960 | 183703 12 | 40:49.29 | 3:59.41 | 183704 | 201669 13 | 44:48.70 | 3:30.56 | 201670 | 217475 14 | 48:19.51 | 4:40.32 | 217476 | 238507 15 | 53:00.08 | 4:51.02 | 238508 | 260334 16 | 57:51.10 | 4:24.11 | 260335 | 280145 17 | 62:15.21 | 4:06.72 | 280146 | 298667 18 | 66:22.18 | 3:56.48 | 298668 | 316415

Range status and errors

Selected range

Filename G:\NL[ZAM]\Carrack\CD1\Paul Carrack - Paul Carrack - Collected.wav

Peak level 96.6 % Extraction speed 8.2 X Range quality 100.0 % Test CRC 6FCEF19A Copy CRC 6FCEF19A Copy OK

No errors occurred

AccurateRip summary

Track 1 not present in databaseTrack 2 not present in databaseTrack 3 not present in databaseTrack 4 not present in databaseTrack 5 not present in databaseTrack 6 not present in databaseTrack 7 not present in databaseTrack 8 not present in databaseTrack 9 not present in databaseTrack 10 not present in databaseTrack 11 not present in databaseTrack 12 not present in databaseTrack 13 not present in databaseTrack 14 not present in databaseTrack 15 not present in databaseTrack 16 not present in databaseTrack 17 not present in databaseTrack 18 not present in database

None of the tracks are present in the AccurateRip database

End of status report

---- CUETools DB Plugin V2.1.3

[CTDB TOCID: Timx2109U5lvYvITV6QMQeumynM-] found, Submit result: Timx2109U5lvYvITV6QMQeumynM- has been confirmed[76165c36] (1/1) Accurately ripped
REM GENRE "Rock"REM DATE 2012REM DISCID FE107A12REM COMMENT "ExactAudioCopy v1.0b3"PERFORMER "Paul Carrack"TITLE "Paul Carrack - Collected"FILE "Paul Carrack - Paul Carrack - Collected (2012).wv" WAVE TRACK 01 AUDIO TITLE "How Long" PERFORMER "Ace" INDEX 01 00:00:00 TRACK 02 AUDIO TITLE "Tempted" PERFORMER "Squeeze" INDEX 00 03:19:06 INDEX 01 03:21:06 TRACK 03 AUDIO TITLE "Don't Shed A Tear" PERFORMER "Paul Carrack" INDEX 00 07:17:05 INDEX 01 07:19:05 TRACK 04 AUDIO TITLE "The Living Years" PERFORMER "Mike & The Mechanics" INDEX 00 11:00:24 INDEX 01 11:02:24 TRACK 05 AUDIO TITLE "Love Will Keep Us Alive" PERFORMER "Paul Carrack" INDEX 00 16:22:12 INDEX 01 16:24:12 TRACK 06 AUDIO TITLE "Groovin'" PERFORMER "Paul Carrack" INDEX 00 20:28:74 INDEX 01 20:30:74 TRACK 07 AUDIO TITLE "When You Walk In The Room" PERFORMER "Paul Carrack" INDEX 00 23:13:60 INDEX 01 23:15:60 TRACK 08 AUDIO TITLE "Empty Space" PERFORMER "Paul Carrack" INDEX 00 26:45:19 INDEX 01 26:47:19 TRACK 09 AUDIO TITLE "Over My Shoulder" PERFORMER "Mike & The Mechanics" INDEX 00 31:09:10 INDEX 01 31:11:10 TRACK 10 AUDIO TITLE "While My Little Girl Is Smiling" PERFORMER "Paul Carrack" INDEX 00 34:46:56 INDEX 01 34:48:56 TRACK 11 AUDIO TITLE "Satisfy My Soul" PERFORMER "Paul Carrack" INDEX 00 37:17:35 INDEX 01 37:19:35 TRACK 12 AUDIO TITLE "Eyes Of Blue" PERFORMER "Paul Carrack" INDEX 00 40:47:29 INDEX 01 40:49:29 TRACK 13 AUDIO TITLE "Always Better With You" PERFORMER "Paul Carrack" INDEX 00 44:46:70 INDEX 01 44:48:70 TRACK 14 AUDIO TITLE "The Way I'm Feeling Tonight" PERFORMER "Paul Carrack" INDEX 00 48:17:51 INDEX 01 48:19:51 TRACK 15 AUDIO TITLE "A Time And Place" PERFORMER "Mike & The Mechanics" INDEX 00 52:58:08 INDEX 01 53:00:08 TRACK 16 AUDIO TITLE "It Ain't Over" PERFORMER "Paul Carrack" INDEX 00 57:49:10 INDEX 01 57:51:10 TRACK 17 AUDIO TITLE "Long Ago" PERFORMER "Paul Carrack" INDEX 00 62:13:21 INDEX 01 62:15:21 TRACK 18 AUDIO TITLE "Everybody Gets A Second Chance" PERFORMER "Mike & The Mechanics" INDEX 00 66:20:18 INDEX 01 66:22:18
-----------------------

DON'T MODIFY THIS FILE

-----------------------

PERFORMER: auCDtect Task Manager, ver. 1.5.1RC3 build 1.5.1.4Copyright (c) 2008-2010 y-soft. All rights reservedhttp://y-soft.org

ANALYZER: auCDtect: CD records authenticity detector, version 0.8.2Copyright (c) 2004 Oleg Berngardt. All rights reserved.Copyright (c) 2004 Alexander Djourik. All rights reserved.

FILE: Paul Carrack - Paul Carrack - Collected.wav Size: 744210476 Hash: 7588428A0807723A4914E6A0C365555D Accuracy: -m0 Conclusion: CDDA 100% Signature: B060EB22C2F76A3171B86629E000C4528E175A87
01. Dedicated 03:43
02. Loving You Tonight 04:49
03. Where Did I Go Wrong? 03:25
04. Silent Running (On Dangerous Ground) 04:12
05. I Need You 02:47
06. I Live On A Battlefield 03:44
07. Ain't No Love In The Heart Of The City 03:43
08. Now That You’ve Gone 04:48
09. I Don't Want To Hear Anymore (ft. Don Henley & Timothy B Schmit) 04:01
10. Time To Move On 03:42
11. One Good Reason 03:21
12. Another Cup Of Coffee 04:43
13. Better Than Nothing 04:07
14. Beauty’s Only Skin Deep 02:58
15. No Doubt About It 03:44
16. Whenever I Stop 03:41
17. Good Feelin' About It 03:02
18. Don't Let The Sun Catch You Crying (with The Royal Philharmonic Orchestra) 03:50
Exact Audio Copy V1.0 beta 3 from 29. August 2011

EAC extraction logfile from 20. October 2012, 13:41

Paul Carrack / Paul Carrack - Collected(CD2)

Used drive : TSSTcorpCDDVDW TS-H653B Adapter: 0 ID: 0

Read mode : SecureUtilize accurate stream : YesDefeat audio cache : YesMake use of C2 pointers : No

Read offset correction : 6Overread into Lead-In and Lead-Out : NoFill up missing offset samples with silence : YesDelete leading and trailing silent blocks : NoNull samples used in CRC calculations : YesUsed interface : Native Win32 interface for Win NT & 2000

Used output format : User Defined EncoderSelected bitrate : 896 kBit/sQuality : HighAdd ID3 tag : NoCommand line compressor : C:\Program Files (x86)\Exact Audio Copy\wavpack.exeAdditional command line options : -hm %source% %dest%

TOC of the extracted CD

Track | Start | Length | Start sector | End sector --------------------------------------------------------- 1 | 0:00.00 | 3:43.27 | 0 | 16751 2 | 3:43.27 | 4:49.50 | 16752 | 38476 3 | 8:33.02 | 3:25.49 | 38477 | 53900 4 | 11:58.51 | 4:12.26 | 53901 | 72826 5 | 16:11.02 | 2:47.55 | 72827 | 85406 6 | 18:58.57 | 3:44.19 | 85407 | 102225 7 | 22:43.01 | 3:43.16 | 102226 | 118966 8 | 26:26.17 | 4:48.17 | 118967 | 140583 9 | 31:14.34 | 4:01.18 | 140584 | 158676 10 | 35:15.52 | 3:42.10 | 158677 | 175336 11 | 38:57.62 | 3:21.16 | 175337 | 190427 12 | 42:19.03 | 4:43.05 | 190428 | 211657 13 | 47:02.08 | 4:07.64 | 211658 | 230246 14 | 51:09.72 | 2:58.02 | 230247 | 243598 15 | 54:07.74 | 3:44.27 | 243599 | 260425 16 | 57:52.26 | 3:41.36 | 260426 | 277036 17 | 61:33.62 | 3:02.38 | 277037 | 290724 18 | 64:36.25 | 3:50.25 | 290725 | 307999

Range status and errors

Selected range

Filename G:\NL[ZAM]\Carrack\CD2\Paul Carrack - Paul Carrack - Collected(CD2).wav

Peak level 96.6 % Extraction speed 8.2 X Range quality 100.0 % Test CRC 4715164B Copy CRC 4715164B Copy OK

No errors occurred

AccurateRip summary

Track 1 not present in databaseTrack 2 not present in databaseTrack 3 not present in databaseTrack 4 not present in databaseTrack 5 not present in databaseTrack 6 not present in databaseTrack 7 not present in databaseTrack 8 not present in databaseTrack 9 not present in databaseTrack 10 not present in databaseTrack 11 not present in databaseTrack 12 not present in databaseTrack 13 not present in databaseTrack 14 not present in databaseTrack 15 not present in databaseTrack 16 not present in databaseTrack 17 not present in databaseTrack 18 not present in database

None of the tracks are present in the AccurateRip database

End of status report

---- CUETools DB Plugin V2.1.3

[CTDB TOCID: VQn38H7SUnWqnKoUQFYi0Vbw3QQ-] found, Submit result: VQn38H7SUnWqnKoUQFYi0Vbw3QQ- has been confirmed[3a7ae7d9] (1/1) Accurately ripped
REM GENRE "Rock"REM DATE 2012REM DISCID 0C100A12REM COMMENT "ExactAudioCopy v1.0b3"PERFORMER "Paul Carrack"TITLE "Paul Carrack - Collected(CD2)"FILE "Paul Carrack - Paul Carrack - Collected(CD2) (2012).wv" WAVE TRACK 01 AUDIO TITLE "Dedicated" PERFORMER "Paul Carrack" INDEX 01 00:00:00 TRACK 02 AUDIO TITLE "Loving You Tonight" PERFORMER "Squeeze" INDEX 00 03:41:27 INDEX 01 03:43:27 TRACK 03 AUDIO TITLE "Where Did I Go Wrong" PERFORMER "Paul Carrack" INDEX 00 08:31:02 INDEX 01 08:33:02 TRACK 04 AUDIO TITLE "Silent Running (On Dangerous Ground)" PERFORMER "Mike & The Mechanics" INDEX 00 11:56:51 INDEX 01 11:58:51 TRACK 05 AUDIO TITLE "I Need You" PERFORMER "Paul Carrack" INDEX 00 16:09:02 INDEX 01 16:11:02 TRACK 06 AUDIO TITLE "I Live On A Battlefield" PERFORMER "Paul Carrack" INDEX 00 18:56:57 INDEX 01 18:58:57 TRACK 07 AUDIO TITLE "Ain't No Love In The Heart Of The City" PERFORMER "Paul Carrack" INDEX 00 22:41:01 INDEX 01 22:43:01 TRACK 08 AUDIO TITLE "Now That You've Gone" PERFORMER "Mike & The Mechanics" INDEX 00 26:24:17 INDEX 01 26:26:17 TRACK 09 AUDIO TITLE "I Don't Want To Hear Any More" PERFORMER "Paul Carrack with Don Henley & Timothy B. Schmit" INDEX 00 31:12:34 INDEX 01 31:14:34 TRACK 10 AUDIO TITLE "Time To Move On" PERFORMER "Paul Carrack" INDEX 00 35:13:52 INDEX 01 35:15:52 TRACK 11 AUDIO TITLE "One Good Reason" PERFORMER "Paul Carrack" INDEX 00 38:55:62 INDEX 01 38:57:62 TRACK 12 AUDIO TITLE "Another Cup Of Coffee" PERFORMER "Mike & The Mechanics" INDEX 00 42:17:03 INDEX 01 42:19:03 TRACK 13 AUDIO TITLE "Better Than Nothing" PERFORMER "Paul Carrack" INDEX 00 47:00:08 INDEX 01 47:02:08 TRACK 14 AUDIO TITLE "Beauty's Only Skin Deep" PERFORMER "Paul Carrack" INDEX 00 51:07:72 INDEX 01 51:09:72 TRACK 15 AUDIO TITLE "No Doubt About It" PERFORMER "Paul Carrack" INDEX 00 54:05:74 INDEX 01 54:07:74 TRACK 16 AUDIO TITLE "Whenever I Stop" PERFORMER "Mike & The Mechanics" INDEX 00 57:50:26 INDEX 01 57:52:26 TRACK 17 AUDIO TITLE "Good Feelin' About It" PERFORMER "Paul Carrack" INDEX 00 61:31:62 INDEX 01 61:33:62 TRACK 18 AUDIO TITLE "Don't Let The Sun Catch You Crying" PERFORMER "Paul Carrack with The Royal Philharmonic Orchestra" INDEX 00 64:34:24 INDEX 01 64:36:25
-----------------------

DON'T MODIFY THIS FILE

-----------------------

PERFORMER: auCDtect Task Manager, ver. 1.5.1RC3 build 1.5.1.4Copyright (c) 2008-2010 y-soft. All rights reservedhttp://y-soft.org

ANALYZER: auCDtect: CD records authenticity detector, version 0.8.2Copyright (c) 2004 Oleg Berngardt. All rights reserved.Copyright (c) 2004 Alexander Djourik. All rights reserved.

FILE: Paul Carrack - Paul Carrack - Collected(CD2).wav Size: 724416044 Hash: 1F8E869CFFD392937BB6E1D982ACC921 Accuracy: -m0 Conclusion: CDDA 100% Signature: 2B56E4FDC09BF201338EC60F4725BA7C746DC230
01. She's Soulful 04:00
02. Don’t Dream It’s Over (with Paul Young) 04:18
03. Burning Love (with Snowy White) 04:26
04. Your Own Special Way (with Steve Hackett) 04:18
05. Love Me As Hard As You Hurt Me 02:46
06. If You Believe In Me (from the movie Beautiful Joe) 05:49
07. Too Late (with Bill Wyman & The Rhythm Kings) 02:56
08. Ride On (with Gare Du Nord) 03:46
09. Wish You Were Here (with Nick Lowe) 03:14
10. Can’t Find My Way Home 05:23
11. Soul To Soul (with The London Community Gospel Choir) 03:50
12. He Ain't Heavy, He's My Brother 04:09
13. A Beggar On A Beach Of Gold (Live in Liverpool) 05:06
14. If I Were You (Live in Liverpool) 03:57
Exact Audio Copy V1.0 beta 3 from 29. August 2011

EAC extraction logfile from 28. October 2012, 13:43

Paul Carrack / Paul Carrack - Collected (CD3)

Used drive : TSSTcorpCDDVDW TS-H653B Adapter: 0 ID: 0

Read mode : SecureUtilize accurate stream : YesDefeat audio cache : YesMake use of C2 pointers : No

Read offset correction : 6Overread into Lead-In and Lead-Out : NoFill up missing offset samples with silence : YesDelete leading and trailing silent blocks : NoNull samples used in CRC calculations : YesUsed interface : Native Win32 interface for Win NT & 2000

Used output format : User Defined EncoderSelected bitrate : 896 kBit/sQuality : HighAdd ID3 tag : NoCommand line compressor : C:\Program Files (x86)\Exact Audio Copy\wavpack.exeAdditional command line options : -hm %source% %dest%

TOC of the extracted CD

Track | Start | Length | Start sector | End sector --------------------------------------------------------- 1 | 0:00.00 | 4:00.50 | 0 | 18049 2 | 4:00.50 | 4:18.60 | 18050 | 37459 3 | 8:19.35 | 4:26.34 | 37460 | 57443 4 | 12:45.69 | 4:18.21 | 57444 | 76814 5 | 17:04.15 | 2:46.28 | 76815 | 89292 6 | 19:50.43 | 5:49.14 | 89293 | 115481 7 | 25:39.57 | 2:56.28 | 115482 | 128709 8 | 28:36.10 | 3:46.50 | 128710 | 145709 9 | 32:22.60 | 3:14.07 | 145710 | 160266 10 | 35:36.67 | 5:23.15 | 160267 | 184506 11 | 41:00.07 | 3:50.07 | 184507 | 201763 12 | 44:50.14 | 4:09.47 | 201764 | 220485 13 | 48:59.61 | 5:06.37 | 220486 | 243472 14 | 54:06.23 | 3:57.52 | 243473 | 261299

Range status and errors

Selected range

Filename G:\NL[ZAM]\Carrack\CD3\Paul Carrack - Paul Carrack - Collected (CD3).wav

Peak level 96.6 % Extraction speed 7.2 X Range quality 99.9 % Test CRC 6EC5045C Copy CRC 6EC5045C Copy OK

No errors occurred

AccurateRip summary

Track 1 not present in databaseTrack 2 not present in databaseTrack 3 not present in databaseTrack 4 not present in databaseTrack 5 not present in databaseTrack 6 not present in databaseTrack 7 not present in databaseTrack 8 not present in databaseTrack 9 not present in databaseTrack 10 not present in databaseTrack 11 not present in databaseTrack 12 not present in databaseTrack 13 not present in databaseTrack 14 not present in database

None of the tracks are present in the AccurateRip database

End of status report

---- CUETools DB Plugin V2.1.3

[CTDB TOCID: 0TeLKX60t5Xzv57bPn_Zw6j7kgg-] found, Submit result: 0TeLKX60t5Xzv57bPn_Zw6j7kgg- has been confirmed[3af0b13d] (1/1) Accurately ripped
REM GENRE "Rock"REM DATE 2012REM DISCID B80D9C0EREM COMMENT "ExactAudioCopy v1.0b3"PERFORMER "Paul Carrack"TITLE "Paul Carrack - Collected (CD3)"FILE "Paul Carrack - Paul Carrack - Collected (CD3) (2012).wv" WAVE TRACK 01 AUDIO TITLE "She's Soulful" PERFORMER "Paul Carrack" INDEX 01 00:00:00 TRACK 02 AUDIO TITLE "Don't Dream It's Over" PERFORMER "Paul Young & Paul Carrack" INDEX 00 03:58:50 INDEX 01 04:00:50 TRACK 03 AUDIO TITLE "Burning Love" PERFORMER "Paul Carrack" INDEX 00 08:17:35 INDEX 01 08:19:35 TRACK 04 AUDIO TITLE "Your Own Special Way" PERFORMER "Steve Hackett & Paul Carrack" INDEX 00 12:43:69 INDEX 01 12:45:69 TRACK 05 AUDIO TITLE "Love Me As Hard As You Hurt Me" PERFORMER "Paul Carrack" INDEX 00 17:02:15 INDEX 01 17:04:15 TRACK 06 AUDIO TITLE "If You Believe In Me (From Movie Beautiful Joe)" PERFORMER "Paul Carrack" INDEX 00 19:48:43 INDEX 01 19:50:43 TRACK 07 AUDIO TITLE "Too Late" PERFORMER "Bill Wyman's Rhythm Kings ft. Paul Carrack" INDEX 00 25:37:57 INDEX 01 25:39:57 TRACK 08 AUDIO TITLE "Ride On Ft. Paul Carrack" PERFORMER "Gare Du Nord" INDEX 00 28:34:10 INDEX 01 28:36:10 TRACK 09 AUDIO TITLE "Wish You Were Here" PERFORMER "Nick Lowe ft. Paul Carrack" INDEX 00 32:20:60 INDEX 01 32:22:60 TRACK 10 AUDIO TITLE "Can't Find My Way Home" PERFORMER "Spin 1ne 2wo" INDEX 00 35:34:67 INDEX 01 35:36:67 TRACK 11 AUDIO TITLE "Soul To Soul" PERFORMER "The London Community Gospel Choir ft Paul Carrack" INDEX 00 40:58:07 INDEX 01 41:00:07 TRACK 12 AUDIO TITLE "He Ain't Heavy He's My Brother'" PERFORMER "Paul Carrack" INDEX 00 44:48:14 INDEX 01 44:50:14 TRACK 13 AUDIO TITLE "Beggars On A Beach Of Gold (Live In Liverpool)" PERFORMER "Paul Carrack" INDEX 00 48:57:61 INDEX 01 48:59:61 TRACK 14 AUDIO TITLE "If I Were You (Live In Liverpool)" PERFORMER "Paul Carrack" INDEX 00 54:04:23 INDEX 01 54:06:23
-----------------------

DON'T MODIFY THIS FILE

-----------------------

PERFORMER: auCDtect Task Manager, ver. 1.5.1RC3 build 1.5.1.4Copyright (c) 2008-2010 y-soft. All rights reservedhttp://y-soft.org

ANALYZER: auCDtect: CD records authenticity detector, version 0.8.2Copyright (c) 2004 Oleg Berngardt. All rights reserved.Copyright (c) 2004 Alexander Djourik. All rights reserved.

FILE: Paul Carrack - Paul Carrack - Collected (CD3).wav Size: 614577644 Hash: 7D62C89B02594BA774F9ADF72796FE72 Accuracy: -m0 Conclusion: CDDA 100% Signature: 29F59D97A8BCE171B9003E45D6EBB816A6B282E7
Доп. информация:
Career The 1970s: Warm Dust, Ace and Roxy Music
Carrack’s recording career began with the progressive rock band Warm Dust, who released three albums of original material between 1970 and 1972. Carrack was the keyboard player for the band, occasionally playing other instruments, with Les Walker performing as the lead vocalist.
After Warm Dust broke up, Carrack and Warm Dust bassist Tex Comer helped to found the pub rock band Ace. Carrack both wrote and was vocalist on the «How Long?», Ace’s debut single—a hit in both the UK and US in 1975. However, no further Ace recordings enjoyed that same level of popularity.
In 1977 Ace disbanded, and Carrack began working as a backing musician for Frankie Miller. Subsequently, he was a member of Roxy Music, playing keyboards on their 1979 reunion album Manifesto. Carrack would also play on the next two Roxy Music albums, but as a session musician, not a band member. The 1980s: working solo and as a session musician
Shortly after leaving Roxy Music full time, Carrack issued his first solo album, 1980’s Nightbird. It was not a commercial success.
In 1981, Glenn Tilbrook recruited Carrack to join Squeeze as a replacement for long-time keyboardist Jools Holland. This new Squeeze line-up achieved international success with the album East Side Story, with Carrack as vocalist on the song «Tempted», their biggest US hit at the time. However, by 1982, Carrack had left the band and was replaced by keyboardist Don Snow.
Beginning in late 1981, Carrack joined up with Nick Lowe in a band that featured Lowe, Carrack, Martin Belmont on guitar, James Eller on bass and Bobby Irwin on drums. This band, referred to as Noise To Go, existed to back both Carrack on his solo recordings, and Lowe on his. (This was similar to the arrangement Lowe had with Dave Edmunds and Rockpile in the late 1970s.) Noise To Go also backed Lowe’s wife Carlene Carter on her 1981 album Blue Nun.
After Carrack’s 1982 solo album Suburban Voodoo, Eller left Noise To Go, and Nick Lowe took over bass duties within the group. The group was rechristened Nick Lowe and His Cowboy Outfit, and recorded two albums from 1983 to 1985, with Lowe as lead vocalist. The group also backed John Hiatt on side two of Hiatt’s 1983 album Riding With The King.
During this era, Carrack also worked as a session musician for The Smiths and The Pretenders.
Nick Lowe and His Cowboy Outfit dissolved in 1985, and Carrack was contacted by Mike Rutherford (of Genesis) who asked him to join Rutherford’s new side project, Mike + The Mechanics. Initially, Carrack was one of two alternating lead vocalists for the group. He sang lead on their 1985 hit, «Silent Running (On Dangerous Ground)».
In 1986, Carrack was a member of Roger Waters’ newly-formed backing band, The Bleeding Heart Band, recording tracks for the soundtrack of the film When the Wind Blows. The following year, Waters (still accompanied by Carrack and the Bleeding Hearts) released a solo album, Radio KAOS and toured the US and Europe. Carrack often filled in as an unofficial support act on the tour, usually playing «Tempted» to warm up the crowd.
Leveraging the success of Mike + The Mechanics, Carrack was able to reestablish his solo career in 1987 with the hit album One Good Reason, and the accompanying hit single «Don’t Shed a Tear», which reached number nine on the Billboard Hot 100. From this point forward, Carrack consistently maintained both a solo career and a career in Mike + The Mechanics. This band recorded and toured irregularly due to Rutherford’s commitments to Genesis.
In 1989, Mike + The Mechanics had a UK number two and US number one hit with the «The Living Years», on which Carrack again sang lead. Also in 1989, Carrack recorded «Romance», a duet with Terri Nunn from the Los Angeles-based synth-pop band Berlin. The song appeared on the soundtrack to the movie Sing, starring Peter Dobson and Lorraine Bracco. [edit] The 1990s: solo and collaborations
In the 1990s, Carrack’s solo career went into abeyance for a few years, although he maintained a career as a session musician. He also continued working with Mike + The Mechanics, who recorded throughout the 1990s. During this era, Carrack assumed keyboard duties within the band, and also began to co-compose some of the band’s songs with Rutherford.
In 1990, Carrack was recruited to perform in the groundbreaking live stage show of The Wall Live in Berlin before a crowd of 250, 000. He sang «Hey You» and was one of the performers on «The Tide Is Turning» with Roger Waters, Joni Mitchell, Cyndi Lauper, Bryan Adams and Van Morrison.
In 1993, Carrack joined with bassist Tony Levin, drummer Steve Ferrone, guitarist Phil Palmer and keyboardist/producer Rupert Hine to form a band known as Spin 1ne 2wo. They released one album, a self-titled project, made up of classic rock covers including songs by Jimi Hendrix, The Who, Led Zeppelin, Blind Faith, Steely Dan and Bob Dylan.
Also in 1993, Squeeze had Carrack return for their album Some Fantastic Place and a subsequent tour. With Carrack on vocals, the band re-recorded their hit «Tempted» for the soundtrack to the movie Reality Bites (1994). However, Carrack once again left Squeeze after about a year with the band.
Following his second stint with Squeeze, Carrack joined forces with Timothy B. Schmit and Don Felder of The Eagles for an ambitious but ultimately unrealized recording project. Schmit and Felder soon reunited with the rest of the Eagles and their Hell Freezes Over album, bringing with them one of the songs Carrack co-wrote, «Love Will Keep Us Alive. » It was recorded by The Eagles and won an award as being the most-played single in America in 1995.
Finally in 1996, Carrack resumed his solo career with the album Blue Views. Into the 21st century
Carrack maintains an active solo career, as well as his career as a session musician and songwriter. Paul toured solo in 2002, mostly opening for bands such as Supertramp. He also served as Mike + The Mechanics’ only lead vocalist after the death of Paul Young in 2000. In 2004, the band was officially re-named Mike + The Mechanics & Paul Carrack. The group went on hiatus the following year, and Rutherford joined a reunited Genesis the year afterward.
After a lull in Carrack’s career, in 2007 The Eagles covered Carrack’s «I Don’t Want To Hear Anymore» on their long-awaited reunion album Long Road Out Of Eden. The album went to number one in the US, UK, Australia, New Zealand and several other countries around the world.
Carrack embarked on a tour of Germany in May 2009, supported by Canadian artist Brendan Croskerry.

Official WebSite


Трекер:  [ 09-Дек-2012 21:48 ]

  

Скачать .torrent

Размер .torrent файла 18 KB


Размер: 1.45 GB
Хэш (hash) релиза: d55a242770e42f1fd42e33d40b255df95ec7f00a

Торренты, похожие на Paul Carrack - Collected скачать торрент

Форум Название Автор Размер S L Добавлен
Зарубежный Rock ·· (Pop Rock) Paul Carrack - Collected - 2012, MP3 320 kbps uzi2009 475180997453 MB 0 0 1348250820

21:07

21-Сен-12

Еще никто не оставлял запись к записи скачать торрент Paul Carrack - Collected . Будь первым!

!Обратная связь