Скачать через торрент музыку VA - Black Night - Deep Purple Tribute According To New York - 1997, FLAC бесплатно без регистрации torrent

Если у вас наблюдаются проблемы со скриншотами, переходом по ссылками, скачиванием торрентов - проблемы в блокировщике рекламы AdBlock. #хорошегоДня!


Статистика раздачи
Размер:  387 MB   |    Зарегистрирован:  4 года 11 месяцев   |    .torrent скачан:  15 раз   |   
Раздают:  1  
   
Загрузка...
 
Автор Сообщение

Galfimbul

avatar Galfimbul


Black Night - Deep Purple Tribute According To New York

Жанр: Hard Rock
Страна-производитель диска: USA
Год издания: 1997
Издатель (лейбл): DeRock
Номер по каталогу: DERCD-092
Страна: USA
Аудиокодек: FLAC (*.flac)
Тип рипа: image+.cue
Битрейт аудио: lossless
Продолжительность: 55:15
Источник (релизер): CD
Наличие сканов в содержимом раздачи: да
Треклист:
01 Black Night
02 Strange Kind Of Womam
03 Fireball
04 Smoke On The Water
05 Child In Time
06 Woman From Tokyo
07 Space Truckin'
08 Stormbringer
09 Speed King
10 Burn
11 Deep Purple NY
Exact Audio Copy V1.0 beta 2 from 29. April 2011

Отчёт EAC об извлечении, выполненном 4. декабря 2012, 17:44

Various Artists / Black Night - Deep Purple Tribute According To New York

Дисковод: ASUS SDRW-08D2S-U Adapter: 1 ID: 0

Режим чтения : ДостоверностьИспользование точного потока : ДаОтключение кэша аудио : ДаИспользование указателей C2 : Нет

Коррекция смещения при чтении : 6Способность читать области Lead-in и Lead-out : НетЗаполнение пропущенных сэмплов тишиной : ДаУдаление блоков с тишиной в начале и конце : НетПри вычислениях CRC использовались нулевые сэмплы : ДаИнтерфейс : Встроенный Win32-интерфейс для Win NT/2000

Выходной формат : Пользовательский кодировщикВыбранный битрейт : 128 kBit/sКачество : ВысокийДобавление ID3-тега : НетУтилита сжатия : C:\Program Files\Exact Audio Copy\FLAC\FLAC.EXEДополнительные параметры : -6 -V -T "ARTIST=%artist%" -T "TITLE=%title%" -T "ALBUM=%albumtitle%" -T "DATE=%year%" -T "TRACKNUMBER=%tracknr%" -T "GENRE=%genre%" -T "COMMENT=%comment%" -T "BAND=%albuminterpret%" -T "COMPOSER=%composer%" %haslyrics%--tag-from-

TOC извлечённого CD

Трек | Старт | Длительность | Начальный сектор | Конечный сектор --------------------------------------------------------------------- 1 | 0:00.30 | 4:41.50 | 30 | 21154 2 | 4:42.05 | 4:07.20 | 21155 | 39699 3 | 8:49.25 | 4:23.49 | 39700 | 59473 4 | 13:12.74 | 5:39.73 | 59474 | 84971 5 | 18:52.72 | 8:55.31 | 84972 | 125127 6 | 27:48.28 | 6:09.51 | 125128 | 152853 7 | 33:58.04 | 4:57.20 | 152854 | 175148 8 | 38:55.24 | 4:08.18 | 175149 | 193766 9 | 43:03.42 | 3:33.03 | 193767 | 209744 10 | 46:36.45 | 6:36.63 | 209745 | 239507 11 | 53:13.33 | 2:02.53 | 239508 | 248710

Характеристики диапазона извлечения и сообщения об ошибках

Выбранный диапазон

Имя файла D:\FLAC\Various Artists - Black Night - Deep Purple Tribute According To New York.wav

Пиковый уровень 99.2 % Скорость извлечения 1.9 X Качество диапазона 100.0 % CRC теста F18819DF CRC копии F18819DF Копирование... OK

Ошибок не произошло

AccurateRip: сводка

Трек 1 : извлечено точно (доверие 7) [09D642CD] (AR v1)Трек 2 : извлечено точно (доверие 7) [2D8ECD2E] (AR v1)Трек 3 : извлечено точно (доверие 6) [AF2A9A8C] (AR v1)Трек 4 : извлечено точно (доверие 7) [0C144343] (AR v1)Трек 5 : извлечено точно (доверие 6) [E9055ABE] (AR v1)Трек 6 : извлечено точно (доверие 7) [EEEDF7E0] (AR v1)Трек 7 : извлечено точно (доверие 6) [45B38AAF] (AR v1)Трек 8 : извлечено точно (доверие 7) [4EB40576] (AR v1)Трек 9 : извлечено точно (доверие 7) [8FD45700] (AR v1)Трек 10 : извлечено точно (доверие 5) [7EE0976A] (AR v1)Трек 11 : извлечено точно (доверие 6) [4796DA00] (AR v1)

Все треки извлечены точно

Конец отчёта

==== Контрольная сумма отчёта 3FDBDCBF401E0454FF163F5C648297B3ADAE86FA2AA4CCEA5D2D6C435E24E3AF ====


Трекер:  [ 09-Дек-2012 21:48 ]

  

Скачать .torrent

Размер .torrent файла 16 KB


Размер: 387 MB
Хэш (hash) релиза: 1a366ac3e54a7e3ead1463745102ca4373e01068

Еще никто не оставлял запись к записи скачать торрент VA - Black Night - Deep Purple Tribute According To New York - 1997, FLAC . Будь первым!

!Обратная связь