Скачать через торрент музыку Planet P Project - Planet P Project - 19831996, FLAC бесплатно без регистрации torrent

Если у вас наблюдаются проблемы со скриншотами, переходом по ссылками, скачиванием торрентов - проблемы в блокировщике рекламы AdBlock. #хорошегоДня!


Статистика раздачи
Размер:  262 MB   |    Зарегистрирован:  4 года 11 месяцев   |    .torrent скачан:  31 раз   |   
Раздают:  1  
   
Загрузка...
 
Автор Сообщение

Galfimbul

avatar Galfimbul


Planet P Project / Planet P Project

Жанр: Rock
Страна-производитель диска: Germany
Год издания: 1983/1996
Издатель (лейбл): Geffen Records
Номер по каталогу: GED04000
Страна: Germany
Аудиокодек: FLAC (*.flac)
Тип рипа: image+.cue
Битрейт аудио: lossless
Продолжительность: 45:49.00
Источник (релизер): Собственный рип
Наличие сканов в содержимом раздачи: да
Треклист:
01 - Static
02 - King For A Day
03 - I Won't Wake Up
04 - Top Of The World
05 - Armageddon
06 - Tranquility Base
07 - Why Me
08 - Power Tools
09 - Send It In A Letter
10 - Adam And Eve
11 - Only You And Me
12 - Ruby
Exact Audio Copy V1.0 beta 3 from 29. August 2011

Отчёт EAC об извлечении, выполненном 4. декабря 2012, 19:35

Planet P Project / Planet P Project

Дисковод: ATAPI DVD A DH16AAS Adapter: 3 ID: 0

Режим чтения : ДостоверностьИспользование точного потока : ДаОтключение кэша аудио : ДаИспользование указателей C2 : Нет

Коррекция смещения при чтении : 6Способность читать области Lead-in и Lead-out : ДаЗаполнение пропущенных сэмплов тишиной : ДаУдаление блоков с тишиной в начале и конце : НетПри вычислениях CRC использовались нулевые сэмплы : ДаИнтерфейс : Установленный внешний ASPI-интерфейс

Выходной формат : Пользовательский кодировщикВыбранный битрейт : 1024 kBit/sКачество : ВысокийДобавление ID3-тега : НетУтилита сжатия : C:\Program Files (x86)\Exact Audio Copy\Flac\flac.exeДополнительные параметры : -V -8 -T "Date=%year%" -T "Genre=%genre%" %source%

TOC извлечённого CD

Трек | Старт | Длительность | Начальный сектор | Конечный сектор --------------------------------------------------------------------- 1 | 0:00.00 | 4:11.07 | 0 | 18831 2 | 4:11.07 | 3:55.45 | 18832 | 36501 3 | 8:06.52 | 3:45.20 | 36502 | 53396 4 | 11:51.72 | 4:33.65 | 53397 | 73936 5 | 16:25.62 | 4:22.28 | 73937 | 93614 6 | 20:48.15 | 1:55.50 | 93615 | 102289 7 | 22:43.65 | 4:06.50 | 102290 | 120789 8 | 26:50.40 | 3:59.57 | 120790 | 138771 9 | 30:50.22 | 3:54.70 | 138772 | 156391 10 | 34:45.17 | 3:40.23 | 156392 | 172914 11 | 38:25.40 | 3:24.02 | 172915 | 188216 12 | 41:49.42 | 3:59.33 | 188217 | 206174

Характеристики диапазона извлечения и сообщения об ошибках

Выбранный диапазон

Имя файла D:\Music\Planet P Project - Planet P Project\Planet P Project - Planet P Project.wav

Пиковый уровень 69.9 % Скорость извлечения 1.4 X Качество диапазона 99.9 % CRC теста 5D32DB74 CRC копии 5D32DB74 Копирование... OK

Ошибок не произошло

AccurateRip: сводка

Трек 1 : извлечено точно (доверие 4) [C1D01A07] (AR v1)Трек 2 : извлечено точно (доверие 4) [F4B01181] (AR v1)Трек 3 : извлечено точно (доверие 3) [FE805161] (AR v1)Трек 4 : извлечено точно (доверие 3) [505664C9] (AR v1)Трек 5 : извлечено точно (доверие 4) [55DB9910] (AR v1)Трек 6 : извлечено точно (доверие 3) [0E966C4F] (AR v1)Трек 7 : извлечено точно (доверие 4) [DD446EB9] (AR v1)Трек 8 : извлечено точно (доверие 4) [9A75EADF] (AR v1)Трек 9 : извлечено точно (доверие 3) [25A9CD81] (AR v1)Трек 10 : извлечено точно (доверие 3) [C23166B6] (AR v1)Трек 11 : извлечено точно (доверие 3) [ED6280E1] (AR v1)Трек 12 : извлечено точно (доверие 3) [DC664857] (AR v1)

Все треки извлечены точно

Конец отчёта

==== Контрольная сумма отчёта 00F4DD30491F386735FF3D1FAA3BE030B38F5FD31C07E0E5DDA6372CD4391AFD ====
REM GENRE RockREM DATE 1983REM DISCID 9A0ABD0CREM COMMENT "ExactAudioCopy v1.0b3"PERFORMER "Planet P Project"TITLE "Planet P Project"FILE "Planet P Project - Planet P Project.flac" WAVE TRACK 01 AUDIO TITLE "Static" PERFORMER "Planet P Project" INDEX 01 00:00:00 TRACK 02 AUDIO TITLE "King For A Day" PERFORMER "Planet P Project" INDEX 00 04:10:23 INDEX 01 04:11:07 TRACK 03 AUDIO TITLE "I Won't Wake Up" PERFORMER "Planet P Project" INDEX 00 08:06:14 INDEX 01 08:06:52 TRACK 04 AUDIO TITLE "Top Of The World" PERFORMER "Planet P Project" INDEX 01 11:51:72 TRACK 05 AUDIO TITLE "Armageddon" PERFORMER "Planet P Project" INDEX 00 16:25:61 INDEX 01 16:25:62 TRACK 06 AUDIO TITLE "Tranquility Base" PERFORMER "Planet P Project" INDEX 00 20:46:60 INDEX 01 20:48:15 TRACK 07 AUDIO TITLE "Why Me" PERFORMER "Planet P Project" INDEX 00 22:42:00 INDEX 01 22:43:65 TRACK 08 AUDIO TITLE "Power Tools" PERFORMER "Planet P Project" INDEX 00 26:50:03 INDEX 01 26:50:40 TRACK 09 AUDIO TITLE "Send It In A Letter" PERFORMER "Planet P Project" INDEX 00 30:49:06 INDEX 01 30:50:22 TRACK 10 AUDIO TITLE "Adam And Eve" PERFORMER "Planet P Project" INDEX 00 34:43:50 INDEX 01 34:45:17 TRACK 11 AUDIO TITLE "Only You And Me" PERFORMER "Planet P Project" INDEX 00 38:24:22 INDEX 01 38:25:40 TRACK 12 AUDIO TITLE "Ruby" PERFORMER "Planet P Project" INDEX 00 41:47:71 INDEX 01 41:49:42
foobar2000 1.1.17 / Dynamic Range Meter 1.1.1
log date: 2012-12-04 19:37:18

--------------------------------------------------------------------------------
Analyzed: Planet P Project / Planet P Project
--------------------------------------------------------------------------------

DR Peak RMS Duration Track
--------------------------------------------------------------------------------
DR14 -4.46 dB -22.13 dB 4:11 01-Static
DR13 -4.28 dB -20.97 dB 3:56 02-King For A Day
DR14 -4.58 dB -22.35 dB 3:45 03-I Won't Wake Up
DR14 -5.07 dB -22.45 dB 4:34 04-Top Of The World
DR13 -5.34 dB -22.55 dB 4:22 05-Armageddon
DR13 -5.44 dB -20.96 dB 1:56 06-Tranquility Base
DR12 -4.75 dB -19.03 dB 4:07 07-Why Me
DR13 -3.11 dB -18.59 dB 4:00 08-Power Tools
DR14 -4.11 dB -21.92 dB 3:55 09-Send It In A Letter
DR14 -4.49 dB -22.75 dB 3:40 10-Adam And Eve
DR13 -7.75 dB -24.08 dB 3:24 11-Only You And Me
DR12 -5.61 dB -19.36 dB 3:59 12-Ruby
--------------------------------------------------------------------------------

Number of tracks: 12
Official DR value: DR13

Samplerate: 44100 Hz
Channels: 2
Bits per sample: 16
Bitrate: 775 kbps
Codec: FLAC
================================================================================
Доп. информация: http://www.discogs.com/Planet-P-Project-Planet-P-Project/release/3741097
Planet P Project is a science-fiction themed, progressive rock band. It is run as a side venture by frontman Tony Carey for his more experimental music, alongside German producer Peter Hauke. The band has released five albums: Planet P (1983), Pink World (1984), Go Out Dancing, Part I (1931) (2005), Go Out Dancing, Part II (Levittown) (2008), and Go Out Dancing, Part III (Out in the Rain) (2009). Music videos for singles from the first albums received moderate airplay on MTV, when originally released. Pink World was originally a two-record set, released on bright-pink-colored vinyl.

Planet P's most well known singles were "Why Me?" (a sweeping, energetic romp about outer space and isolation), and the downbeat "Static". Go Out Dancing, Part I (1931) is the first of the trilogy, with part two titled Go Out Dancing, Part II (Levittown) and part three as Go Out Dancing, Part III (Out in the Rain).

The band's name was inspired from the fictional "Planet P" in Robert A. Heinlein's book Starship Troopers.
Tony Carey – lead vocals, backing vocals, keyboards, bass, acoustic guitars, Roland rhythm composer programs
David Thomas – lead vocals on Only you and me
Johan Daansen – guitars
Robert Musenpichler – guitars
Helmut Bibl – guitars
Hartmut Pfannmueller – drums and percussion
Fritz Matzka – drums and percussion
Peter Hauke – drums and percussion

Recorded and mixed at Hotline Studios, Frankfurt, Germany
Producer: Peter Hauke
Engineer: Andy Lunn, Nigel Jopson and Jon Gaffrey
Assistant Engineers: Carmine Di, Mathias Dietrich
Mixing Engineer: Andy Lunn
Originally mastered by Greg Fulginiti at Artisan Sound Recorders
all words and music by Tony Carey
art direction: Richard Seireeni
cover graphics: George Snow


Трекер:  [ 09-Дек-2012 21:48 ]

  

Скачать .torrent

Размер .torrent файла 11 KB


Размер: 262 MB
Хэш (hash) релиза: ec3ab69fa860b09ae703f9759d087037d8f275e2

Еще никто не оставлял запись к записи скачать торрент Planet P Project - Planet P Project - 19831996, FLAC . Будь первым!

!Обратная связь