Скачать через торрент музыку Dionysus - Dionysus - 2001, APE бесплатно без регистрации torrent

Если у вас наблюдаются проблемы со скриншотами, переходом по ссылками, скачиванием торрентов - проблемы в блокировщике рекламы AdBlock. #хорошегоДня!


Статистика раздачи
Размер:  189 MB   |    Зарегистрирован:  4 года 11 месяцев   |    .torrent скачан:  7 раз   |   
Раздают:  1  
   
Загрузка...
 
Автор Сообщение

Galfimbul

avatar Galfimbul


Dionysus / Dionysus

Жанр: Crossover Prog
Страна-производитель диска: USA
Год издания: 2001
Издатель (лейбл): MERANKRA MUSIC
Страна: USA
Аудиокодек: APE (*.ape)
Тип рипа: image+.cue
Битрейт аудио: lossless
Продолжительность: 00:27:01
Источник (релизер): домашние закрома
Наличие сканов в содержимом раздачи: да
Треклист:
1. Morgana
2. Stones of the fortress
3. Merakra
4. Thera
Exact Audio Copy V1.0 beta 3 from 29. August 2011

Отчёт EAC об извлечении, выполненном 29. ноября 2012, 16:48

Dionisus / Dionisus

Дисковод: ASUS SDRW-08D1S-U Adapter: 1 ID: 0

Режим чтения : ДостоверностьИспользование точного потока : ДаОтключение кэша аудио : ДаИспользование указателей C2 : Нет

Коррекция смещения при чтении : 103Способность читать области Lead-in и Lead-out : НетЗаполнение пропущенных сэмплов тишиной : ДаУдаление блоков с тишиной в начале и конце : НетПри вычислениях CRC использовались нулевые сэмплы : ДаИнтерфейс : Встроенный Win32-интерфейс для Win NT/2000

Выходной формат : Пользовательский кодировщикВыбранный битрейт : 1024 kBit/sКачество : ВысокийДобавление ID3-тега : НетУтилита сжатия : C:\Program Files\Exact Audio Copy\Monkey's Audio\MAC.exeДополнительные параметры : %source% %dest% -c3000

TOC извлечённого CD

Трек | Старт | Длительность | Начальный сектор | Конечный сектор --------------------------------------------------------------------- 1 | 0:00.00 | 5:30.00 | 0 | 24749 2 | 5:30.00 | 5:29.37 | 24750 | 49461 3 | 10:59.37 | 7:00.59 | 49462 | 81020 4 | 18:00.21 | 9:02.30 | 81021 | 121700

Характеристики диапазона извлечения и сообщения об ошибках

Выбранный диапазон

Имя файла H:\!!!-МОИ РАЗДАЧИ-!!!\cd\Dionisus (2001) - Dionisus\Dionisus - Dionisus.wav

Пиковый уровень 100.0 % Скорость извлечения 1.7 X Качество диапазона 100.0 % CRC теста CB006838 CRC копии CB006838 Копирование... OK

Ошибок не произошло

Конец отчёта

---- CUETools DB Plugin V2.1.3

[CTDB TOCID: ChfFracHPbowIjxCQHNNl4BL2ts-] disk not present in database, Submit result: ChfFracHPbowIjxCQHNNl4BL2ts- has been uploaded

==== Контрольная сумма отчёта FA77D32EC150201D3D498051AA6D551EC7A9280F8798C943B97CCF3843F7D826 ====
AUDIOCHECKER v2.0 beta (build 457) - by Dester - <a href="mailto:opdester@freemail.hu" class="postLink">opdester@freemail.hu</a>~~~~~~~~~~~~~~~~~~~~~~~~~~~~~~~~~~-=== НЕ РЕДАКТИРУЙТЕ ЭТОТ ФАЙЛ! ===-

Путь: ...\Dionisus (2001) - Dionisus

1 -=- Dionisus - Dionisus.ape -=- CDDA (100%)

106426948
Доп. информация: Довольно приятная, мелодичная, без особого заумья, музыка с женским вокалом. Слушая её, возникают ассоциации, где-то с Renaissance, где-то с Mike Oldfield, где-то с Fleetwood Mac, но только ассоциации, не более. К сожалению, никакой информации о этой группе найти не удалось, кроме того, что они американцы. Есть, правда, металлисты-шведы с таким же названием и увы.
These four songs are images of a greater story one expressed with music. We as listeners and makers of music, are a bit uninspired by the state of monotony and greed in music today. We would lake to offer something slightly twisted - heard and grace. There is as much passion and myth in our world as there ever was and music as an art from should reflectit. Thank you for supporting us and we hope you enjoy our music.
Emily Sawyer - lead vocals/vocal harmonies
Scott Turner - rhithym guitars/guitar harmonies/percussion (electric &
acoustic six & twelve string guitars, tambourine & shaker)
Steve Saviano - drum kit
Sarah Loverme - keyboards (mellotron choir & strings, organ, synthesisers)
Sean Matthes - bass guitar
Joel Weinstein - lead guitars/guitar harmonies/rhithym guitars (electric
six & twelve string guitars, acoustic six string guitar)


Трекер:  [ 09-Дек-2012 21:48 ]

  

Скачать .torrent

Размер .torrent файла 15 KB


Размер: 189 MB
Хэш (hash) релиза: b391c3ffdbbc5283dbaff17bc13a3598c262c03e

Еще никто не оставлял запись к записи скачать торрент Dionysus - Dionysus - 2001, APE . Будь первым!

!Обратная связь