Скачать через торрент музыку Chan Romero - Fifties Flash Back бесплатно без регистрации torrent

Если у вас наблюдаются проблемы со скриншотами, переходом по ссылками, скачиванием торрентов - проблемы в блокировщике рекламы AdBlock. #хорошегоДня!


Статистика раздачи
Размер:  155 MB   |    Зарегистрирован:  4 года 8 месяцев   |    .torrent скачан:  7 раз   |   
Раздают:  1  
   
Загрузка...
 
Автор Сообщение

Galfimbul

avatar Galfimbul


Chan Romero / Fifties Flash Back

Жанр: Rockabilly
Страна-производитель диска: Holland
Год издания: 1996
Издатель (лейбл): Rockhouse Records
Номер по каталогу: ROCKCD 9501
Страна: USA
Аудиокодек: FLAC (*.flac)
Тип рипа: image+.cue
Битрейт аудио: lossless
Продолжительность: 31:07
Источник (релизер): AUDELAS KINGDOM
Наличие сканов в содержимом раздачи: да
01. I Don't Want You Fooling With My Heart
02. My Little Ruby
03. I Don't Care Now
04. Love's Imitation
05. Hippy Hippy Shake
06. Trying To Forget
07. I Want Some More
08. Thrill Me So Much
09. Drownin' In My Tears
10. My Love
11. The Wind
12. Interview with Chan Romero
Exact Audio Copy V1.0 beta 2 from 29. April 2011

Отчёт EAC об извлечении, выполненном 3. декабря 2012, 19:42

Chan Romero / Fifties Flash Back

Дисковод: ATAPI iHAS124 B Adapter: 1 ID: 1

Режим чтения : ДостоверностьИспользование точного потока : ДаОтключение кэша аудио : ДаИспользование указателей C2 : Нет

Коррекция смещения при чтении : 6Способность читать области Lead-in и Lead-out : НетЗаполнение пропущенных сэмплов тишиной : ДаУдаление блоков с тишиной в начале и конце : НетПри вычислениях CRC использовались нулевые сэмплы : ДаИнтерфейс : Встроенный Win32-интерфейс для Win NT/2000

Выходной формат : Пользовательский кодировщикВыбранный битрейт : 1024 kBit/sКачество : ВысокийДобавление ID3-тега : НетУтилита сжатия : C:\Program Files\Exact Audio Copy\FLAC\FLAC.EXEДополнительные параметры : -6 -V -T "ARTIST=%artist%" -T "TITLE=%title%" -T "ALBUM=%albumtitle%" -T "DATE=%year%" -T "TRACKNUMBER=%tracknr%" -T "GENRE=%genre%" -T "COMMENT=%comment%" -T "BAND=%albuminterpret%" -T "COMPOSER=%composer%" %haslyrics%--tag-from-

TOC извлечённого CD

Трек | Старт | Длительность | Начальный сектор | Конечный сектор --------------------------------------------------------------------- 1 | 0:00.00 | 2:26.34 | 0 | 10983 2 | 2:26.34 | 2:08.11 | 10984 | 20594 3 | 4:34.45 | 2:28.40 | 20595 | 31734 4 | 7:03.10 | 2:35.22 | 31735 | 43381 5 | 9:38.32 | 1:43.05 | 43382 | 51111 6 | 11:21.37 | 2:23.20 | 51112 | 61856 7 | 13:44.57 | 1:29.15 | 61857 | 68546 8 | 15:13.72 | 2:34.40 | 68547 | 80136 9 | 17:48.37 | 2:16.33 | 80137 | 90369 10 | 20:04.70 | 2:48.02 | 90370 | 102971 11 | 22:52.72 | 4:57.28 | 102972 | 125274 12 | 27:50.25 | 7:07.02 | 125275 | 157301

Характеристики диапазона извлечения и сообщения об ошибках

Выбранный диапазон

Имя файла D:\Muzika\Chan Romero - Fifties Flash Back (1996)\Chan Romero - Fifties Flash Back.wav

Пиковый уровень 98.0 % Скорость извлечения 7.5 X Качество диапазона 100.0 % CRC теста 9E815766 CRC копии 9E815766 Копирование... OK

Ошибок не произошло

AccurateRip: сводка

Трек 1 отсутствует в базе данныхТрек 2 отсутствует в базе данныхТрек 3 отсутствует в базе данныхТрек 4 отсутствует в базе данныхТрек 5 отсутствует в базе данныхТрек 6 отсутствует в базе данныхТрек 7 отсутствует в базе данныхТрек 8 отсутствует в базе данныхТрек 9 отсутствует в базе данныхТрек 10 отсутствует в базе данныхТрек 11 отсутствует в базе данныхТрек 12 отсутствует в базе данных

Ни одного трека нет в базе AccurateRip

Конец отчёта

==== Контрольная сумма отчёта E3D68CDD500C2A729379F01F7730520C2A8D12515A029ECDBF14C0FC0B06B11D ====


Трекер:  [ 09-Дек-2012 21:48 ]

  

Скачать .torrent

Размер .torrent файла 13 KB


Размер: 155 MB
Хэш (hash) релиза: 9dc55be2171f5620e675cba22c15a2563471187a

Еще никто не оставлял запись к записи скачать торрент Chan Romero - Fifties Flash Back . Будь первым!

!Обратная связь