Скачать через торрент музыку Cartel Carnage - Incorporated - 2011, FLAC бесплатно без регистрации torrent

Если у вас наблюдаются проблемы со скриншотами, переходом по ссылками, скачиванием торрентов - проблемы в блокировщике рекламы AdBlock. #хорошегоДня!


Статистика раздачи
Размер:  473 MB   |    Зарегистрирован:  4 года 8 месяцев   |    .torrent скачан:  3 раза   |   
Раздают:  1  
   
Загрузка...
 
Автор Сообщение

Galfimbul

avatar Galfimbul


CARTEL CARNAGE — Incorporated (2011)

Жанр: Progressive Rock/Avant-prog
Страна исполнителя: France
Год выпуска диска: 2011
Производитель дисков: France (Great Winds)
Номер по каталогу: GW3149
Аудио кодек: FLAC
Тип рипа: image+.cue
Битрейт аудио: lossless
Продолжительность: 01:01:57
Наличие сканов в содержимом раздачи: да
Источник: моя коллекция CD

Треклист:
01. Scissor Me [00:46.920]
02. Houx-Wardiougue [03:53.027]
03. Plus de Pâtes [00:12.667]
04. Foolish Grenade Amplifier [03:41.507]
05. Beyond Free Zeuhl [02:43.507]
06. Encore Plus de Pâtes [00:16.013]
07. Tone Box Pie 4 [08:42.987]
08. Le Chant de la Carpe [02:20.520]
09. Adverse Anxiety And The Cheetah [05:44.507]
10. South Mountains [04:20.867]
11. Ready Steady Go [00:26.253]
12. Mes Choux Gars [05:15.813]
13. Badaboom On The World [08:33.880]
14. Missing Him [01:14.200]
15. Obliques Stratégies [10:24.947]
16. Pourquoi [03:07.200]

Line-up:
Sylvain Bardeau — trumpets, bugle, Euphonium
[b]Sylvain Cathala
— tenor saxophone, C-melody
Frédéric Maurin — guitar
Alexandre Tomaszewski — bass
Éric Dambrin — drums, percussion, keyboards[/b]
REM GENRE "Progressive Rock/Avant-prog"
REM DATE 2011
REM DISCID DF0E8510
REM COMMENT "ExactAudioCopy v0.99pb4"
PERFORMER "CARTEL CARNAGE"
TITLE "Incorporated"
FILE "CARTEL CARNAGE - 2011 - Incorporated.wav" WAVE
  TRACK 01 AUDIO
    TITLE "Scissor Me"
    PERFORMER "CARTEL CARNAGE"
    INDEX 01 00:00:00
  TRACK 02 AUDIO
    TITLE "Houx-Wardiougue"
    PERFORMER "CARTEL CARNAGE"
    INDEX 00 00:46:69
    INDEX 01 00:47:05
  TRACK 03 AUDIO
    TITLE "Plus de Pates"
    PERFORMER "CARTEL CARNAGE"
    INDEX 00 04:40:07
    INDEX 01 04:41:00
  TRACK 04 AUDIO
    TITLE "Foolish Grenade Amplifier"
    PERFORMER "CARTEL CARNAGE"
    INDEX 00 04:53:50
    INDEX 01 04:55:49
  TRACK 05 AUDIO
    TITLE "Beyond Free Zeuhl"
    PERFORMER "CARTEL CARNAGE"
    INDEX 00 08:37:12
    INDEX 01 08:37:32
  TRACK 06 AUDIO
    TITLE "Encore Plus de Pates"
    PERFORMER "CARTEL CARNAGE"
    INDEX 00 11:20:70
    INDEX 01 11:21:14
  TRACK 07 AUDIO
    TITLE "Tone Box Pie 4"
    PERFORMER "CARTEL CARNAGE"
    INDEX 00 11:37:15
    INDEX 01 11:39:14
  TRACK 08 AUDIO
    TITLE "Le Chant de la Carpe"
    PERFORMER "CARTEL CARNAGE"
    INDEX 01 20:22:13
  TRACK 09 AUDIO
    TITLE "Adverse Anxiety And The Cheetah"
    PERFORMER "CARTEL CARNAGE"
    INDEX 01 22:42:52
  TRACK 10 AUDIO
    TITLE "South Mountains"
    PERFORMER "CARTEL CARNAGE"
    INDEX 00 28:27:15
    INDEX 01 28:28:58
  TRACK 11 AUDIO
    TITLE "Ready Steady Go"
    PERFORMER "CARTEL CARNAGE"
    INDEX 01 32:49:48
  TRACK 12 AUDIO
    TITLE "Mes Choux Gars"
    PERFORMER "CARTEL CARNAGE"
    INDEX 01 33:15:67
  TRACK 13 AUDIO
    TITLE "Badaboom On The World"
    PERFORMER "CARTEL CARNAGE"
    INDEX 00 38:31:53
    INDEX 01 38:33:38
  TRACK 14 AUDIO
    TITLE "Missing Him"
    PERFORMER "CARTEL CARNAGE"
    INDEX 00 47:07:29
    INDEX 01 47:07:52
  TRACK 15 AUDIO
    TITLE "Obliques Strategies"
    PERFORMER "CARTEL CARNAGE"
    INDEX 00 48:21:67
    INDEX 01 48:23:08
  TRACK 16 AUDIO
    TITLE "Pourquoi"
    PERFORMER "CARTEL CARNAGE"
    INDEX 00 58:48:04
    INDEX 01 58:50:03
REM GENRE "Progressive Rock/Avant-prog"
REM DATE 2011
REM DISCID DF0E8510
REM COMMENT "ExactAudioCopy v0.99pb4"
PERFORMER "CARTEL CARNAGE"
TITLE "Incorporated"
FILE "CARTEL CARNAGE - 2011 - Incorporated.flac" WAVE
  TRACK 01 AUDIO
    TITLE "Scissor Me"
    PERFORMER "CARTEL CARNAGE"
    INDEX 01 00:00:00
  TRACK 02 AUDIO
    TITLE "Houx-Wardiougue"
    PERFORMER "CARTEL CARNAGE"
    INDEX 00 00:46:69
    INDEX 01 00:47:05
  TRACK 03 AUDIO
    TITLE "Plus de Pâtes"
    PERFORMER "CARTEL CARNAGE"
    INDEX 00 04:40:07
    INDEX 01 04:41:00
  TRACK 04 AUDIO
    TITLE "Foolish Grenade Amplifier"
    PERFORMER "CARTEL CARNAGE"
    INDEX 00 04:53:50
    INDEX 01 04:55:49
  TRACK 05 AUDIO
    TITLE "Beyond Free Zeuhl"
    PERFORMER "CARTEL CARNAGE"
    INDEX 00 08:37:12
    INDEX 01 08:37:32
  TRACK 06 AUDIO
    TITLE "Encore Plus de Pâtes"
    PERFORMER "CARTEL CARNAGE"
    INDEX 00 11:20:70
    INDEX 01 11:21:14
  TRACK 07 AUDIO
    TITLE "Tone Box Pie 4"
    PERFORMER "CARTEL CARNAGE"
    INDEX 00 11:37:15
    INDEX 01 11:39:14
  TRACK 08 AUDIO
    TITLE "Le Chant de la Carpe"
    PERFORMER "CARTEL CARNAGE"
    INDEX 01 20:22:13
  TRACK 09 AUDIO
    TITLE "Adverse Anxiety And The Cheetah"
    PERFORMER "CARTEL CARNAGE"
    INDEX 01 22:42:52
  TRACK 10 AUDIO
    TITLE "South Mountains"
    PERFORMER "CARTEL CARNAGE"
    INDEX 00 28:27:15
    INDEX 01 28:28:58
  TRACK 11 AUDIO
    TITLE "Ready Steady Go"
    PERFORMER "CARTEL CARNAGE"
    INDEX 01 32:49:48
  TRACK 12 AUDIO
    TITLE "Mes Choux Gars"
    PERFORMER "CARTEL CARNAGE"
    INDEX 01 33:15:67
  TRACK 13 AUDIO
    TITLE "Badaboom On The World"
    PERFORMER "CARTEL CARNAGE"
    INDEX 00 38:31:53
    INDEX 01 38:33:38
  TRACK 14 AUDIO
    TITLE "Missing Him"
    PERFORMER "CARTEL CARNAGE"
    INDEX 00 47:07:29
    INDEX 01 47:07:52
  TRACK 15 AUDIO
    TITLE "Obliques Stratégies"
    PERFORMER "CARTEL CARNAGE"
    INDEX 00 48:21:67
    INDEX 01 48:23:08
  TRACK 16 AUDIO
    TITLE "Pourquoi"
    PERFORMER "CARTEL CARNAGE"
    INDEX 00 58:48:04
    INDEX 01 58:50:03
Exact Audio Copy V0.99 prebeta 4 from 23. January 2008

Отчёт EAC об извлечении, выполненном 3. декабря 2012, 0:35

CARTEL CARNAGE / Incorporated

Дисковод: TSSTcorpCD/DVDW SH-S183A   Adapter: 4  ID: 1

Режим чтения                 : Достоверность
Использование точного потока : Да
Отключение кэша аудио        : Да
Использование указателей C2  : Нет

Коррекция смещения при чтении                     : 6
Способность читать области Lead-in и Lead-out     : Нет
Заполнение пропущенных сэмплов тишиной            : Да
Удаление блоков с тишиной в начале и конце        : Нет
При вычислениях CRC использовались нулевые сэмплы : Да
Интерфейс                                         : Встроенный Win32-интерфейс для Win NT/2000

Выходной формат : Внутренние WAV-операции
Формат сэмплов  : 44.100 Гц; 16 бит; стерео

TOC извлечённого CD

     Трек |   Старт  | Длительность | Начальный сектор | Конечный сектор
    ---------------------------------------------------------------------
       1  |  0:00.00 |    0:47.05   |           0      |       3529
       2  |  0:47.05 |    3:53.70   |        3530      |      21074
       3  |  4:41.00 |    0:14.49   |       21075      |      22173
       4  |  4:55.49 |    3:41.58   |       22174      |      38806
       5  |  8:37.32 |    2:43.57   |       38807      |      51088
       6  | 11:21.14 |    0:18.00   |       51089      |      52438
       7  | 11:39.14 |    8:42.74   |       52439      |      91662
       8  | 20:22.13 |    2:20.39   |       91663      |     102201
       9  | 22:42.52 |    5:46.06   |      102202      |     128157
      10  | 28:28.58 |    4:20.65   |      128158      |     147722
      11  | 32:49.48 |    0:26.19   |      147723      |     149691
      12  | 33:15.67 |    5:17.46   |      149692      |     173512
      13  | 38:33.38 |    8:34.14   |      173513      |     212076
      14  | 47:07.52 |    1:15.31   |      212077      |     217732
      15  | 48:23.08 |   10:26.70   |      217733      |     264752
      16  | 58:50.03 |    3:07.15   |      264753      |     278792

Характеристики диапазона извлечения и сообщения об ошибках

Выбранный диапазон

     Имя файла D:\TEMP\CARTEL CARNAGE - 2011 - Incorporated.wav

     Пиковый уровень 100.0 %
     Качество диапазона 100.0 %
     CRC теста 62902D00
     CRC копии 62902D00
     Копирование... OK

Ошибок не произошло

AccurateRip: сводка

Трек  1  нет в базе данных
Трек  2  нет в базе данных
Трек  3  нет в базе данных
Трек  4  нет в базе данных
Трек  5  нет в базе данных
Трек  6  нет в базе данных
Трек  7  нет в базе данных
Трек  8  нет в базе данных
Трек  9  нет в базе данных
Трек 10  нет в базе данных
Трек 11  нет в базе данных
Трек 12  нет в базе данных
Трек 13  нет в базе данных
Трек 14  нет в базе данных
Трек 15  нет в базе данных
Трек 16  нет в базе данных

Ни одного трека нет в базе AccurateRip

Конец отчёта


Трекер:  [ 09-Дек-2012 21:48 ]

  

Скачать .torrent

Размер .torrent файла 20 KB


Размер: 473 MB
Хэш (hash) релиза: 9dd806cd57e5f9769855c81a5842aad60d26ee2d

Еще никто не оставлял запись к записи скачать торрент Cartel Carnage - Incorporated - 2011, FLAC . Будь первым!

!Обратная связь