Скачать через торрент музыку David Bowie - Ziggy Stardust And The Spiders From Mars Live бесплатно без регистрации torrent

Если у вас наблюдаются проблемы со скриншотами, переходом по ссылками, скачиванием торрентов - проблемы в блокировщике рекламы AdBlock. #хорошегоДня!


Статистика раздачи
Размер:  445 MB   |    Зарегистрирован:  4 года 8 месяцев   |    .torrent скачан:  10 раз   |   
Раздают:  1  
   
Загрузка...
 
Автор Сообщение

Galfimbul

avatar Galfimbul


David Bowie / Ziggy Stardust And The Spiders From Mars ''Live''

Жанр: Classic Rock / Glam Rock / Art Rock / Blue-eyed Soul
Страна-производитель диска: Belgium
Год издания: 1995
Издатель (лейбл): Audiophile Legends
Номер по каталогу: APH 102.804
Страна: UK

Аудиокодек: FLAC (*.flac)
Тип рипа: image+.cue
Режим рипа: test & copy
Битрейт аудио: lossless
Продолжительность: 01:17:48

Источник (релизер): sewerok
Наличие сканов в содержимом раздачи: да

Треклист:
01. Intro [0:00:14.35]
02. Hang On To Yourself [0:02:46.40]
03. Ziggy Stardust [0:03:23.45]
04. Changes [0:03:32.32]
05. The Superman [0:02:56.58]
06. Life On Mars [0:03:28.35]
07. Five Years [0:05:21.17]
08. Space Oddity [0:05:21.45]
09. Andy Warhol [0:03:57.25]
10. My Death Waits [0:05:56.35]
11. The Width Of A Circle [0:10:39.28]
12. Queen Bitch [0:03:00.50]
13. Moonage Daydream [0:04:37.30]
14. John, I'm Only Dancing [0:03:36.02]
15. Waiting For The Man [0:06:01.55]
16. The Jean Genie [0:04:00.45]
17. Suffragette City [0:04:25.20]
18. Rock 'N Roll Suicide [0:03:05.68]
19. Closing [0:01:22.52]
Exact Audio Copy V1.0 beta 3 from 29. August 2011

EAC extraction logfile from 30. November 2012, 21:37

David Bowie / Ziggy Stardust And The Spiders From Mars ''Live''

Used drive : TSSTcorpCD/DVDW TS-L632D Adapter: 0 ID: 0

Read mode : SecureUtilize accurate stream : YesDefeat audio cache : YesMake use of C2 pointers : No

Read offset correction : 6Overread into Lead-In and Lead-Out : NoFill up missing offset samples with silence : YesDelete leading and trailing silent blocks : NoNull samples used in CRC calculations : YesUsed interface : Native Win32 interface for Win NT & 2000

Used output format : User Defined EncoderSelected bitrate : 896 kBit/sQuality : HighAdd ID3 tag : NoCommand line compressor : C:\Program Files (x86)\Exact Audio Copy\Flac\flac.exeAdditional command line options : -V -8 -T "Date=%year%" -T "Genre=%genre%" %source%

TOC of the extracted CD

Track | Start | Length | Start sector | End sector --------------------------------------------------------- 1 | 0:00.33 | 0:14.35 | 33 | 1117 2 | 0:14.68 | 2:46.40 | 1118 | 13607 3 | 3:01.33 | 3:23.45 | 13608 | 28877 4 | 6:25.03 | 3:32.32 | 28878 | 44809 5 | 9:57.35 | 2:56.58 | 44810 | 58067 6 | 12:54.18 | 3:28.35 | 58068 | 73702 7 | 16:22.53 | 5:21.17 | 73703 | 97794 8 | 21:43.70 | 5:21.45 | 97795 | 121914 9 | 27:05.40 | 3:57.25 | 121915 | 139714 10 | 31:02.65 | 5:56.35 | 139715 | 166449 11 | 36:59.25 | 10:39.28 | 166450 | 214402 12 | 47:38.53 | 3:00.50 | 214403 | 227952 13 | 50:39.28 | 4:37.30 | 227953 | 248757 14 | 55:16.58 | 3:36.02 | 248758 | 264959 15 | 58:52.60 | 6:01.55 | 264960 | 292089 16 | 64:54.40 | 4:00.45 | 292090 | 310134 17 | 68:55.10 | 4:25.20 | 310135 | 330029 18 | 73:20.30 | 3:05.68 | 330030 | 343972 19 | 76:26.23 | 1:22.52 | 343973 | 350174

Range status and errors

Selected range

Filename G:\David Bowie - Ziggy Stardust And The Spiders From Mars ''Live''\David Bowie - Ziggy Stardust And The Spiders From Mars ''Live''.wav

Peak level 90.0 % Extraction speed 2.1 X Range quality 100.0 % Test CRC FA5C963C Copy CRC FA5C963C Copy OK

No errors occurred

AccurateRip summary

Track 1 accurately ripped (confidence 3) [6B9ECB05] (AR v1)Track 2 accurately ripped (confidence 2) [FB702731] (AR v1)Track 3 accurately ripped (confidence 3) [B7B380AB] (AR v1)Track 4 accurately ripped (confidence 3) [82C1D97D] (AR v1)Track 5 accurately ripped (confidence 3) [9332FEA5] (AR v1)Track 6 accurately ripped (confidence 3) [172E0532] (AR v1)Track 7 accurately ripped (confidence 3) [C7E8FB78] (AR v1)Track 8 accurately ripped (confidence 3) [C25F0BD5] (AR v1)Track 9 accurately ripped (confidence 3) [A4149D30] (AR v1)Track 10 accurately ripped (confidence 3) [45F53D86] (AR v1)Track 11 accurately ripped (confidence 3) [9291F6F2] (AR v1)Track 12 accurately ripped (confidence 3) [D5CB7C91] (AR v1)Track 13 accurately ripped (confidence 3) [7B5E443C] (AR v1)Track 14 accurately ripped (confidence 3) [B865E1E5] (AR v1)Track 15 accurately ripped (confidence 3) [C49E6FAD] (AR v1)Track 16 accurately ripped (confidence 3) [FD116F1B] (AR v1)Track 17 accurately ripped (confidence 3) [5E3295FF] (AR v1)Track 18 accurately ripped (confidence 3) [6A54F558] (AR v1)Track 19 accurately ripped (confidence 3) [6EB18688] (AR v1)

All tracks accurately ripped

End of status report

==== Log checksum 1065200695BE5C1FE5D5ED98CE2766593E9F23C32FE24AEA0B0E6AADFBDDE26A ====


Трекер:  [ 09-Дек-2012 21:48 ]

  

Скачать .torrent

Размер .torrent файла 18 KB


Размер: 445 MB
Хэш (hash) релиза: c1e4863717bc76bdcf4b144aa7676009ba9f450f

Еще никто не оставлял запись к записи скачать торрент David Bowie - Ziggy Stardust And The Spiders From Mars Live . Будь первым!

!Обратная связь