Скачать через торрент музыку T.M.Stevens Out of control - Boom!! - 1995, FLAC бесплатно без регистрации torrent

Если у вас наблюдаются проблемы со скриншотами, переходом по ссылками, скачиванием торрентов - проблемы в блокировщике рекламы AdBlock. #хорошегоДня!


Статистика раздачи
Размер:  437 MB   |    Зарегистрирован:  4 года 10 месяцев   |    .torrent скачан:  18 раз   |   
Раздают:  1  
   
Загрузка...
 
Автор Сообщение

Galfimbul

avatar Galfimbul


T.M.Stevens Out of control / Boom!!

Жанр: Hard rock /Funk rock
Страна-производитель диска: JAPAN
Год издания диска: 1995
Издатель (лейбл): Polystar
Номер по каталогу: PSCW-5090
Страна: USA
Аудиокодек: FLAC (*.flac)
Тип рипа: image+.cue
Битрейт аудио: lossless
Продолжительность: 51:32
Источник (релизер): CD
Наличие сканов в содержимом раздачи: да
Треклист:
01 Hello-P-Funk Wants To Get Funked Up
02 Turn Me On (T.M.O.)
03 Supernatural
04 T.C. Boogie [Out-Take Jam]
05 I'm a Believer
06 By Any Means
07 The Gift
08 Freedom (Never Gonna Give It Up)
09 T.M.'s Skat [Outtake]
10 Hair
11 Raw (Like Sushi)
12 Body Bag
13 What About Love
14 Bassaholics [Out-Take Jam Thang]
15 Boom
[b]Exact Audio Copy V1.0 beta 2 from 29. April 2011

T.M. Stevens Out Of Control / Boom !!

Дисковод: ASUS SDRW-08D2S-U Adapter: 1 ID: 1

Режим чтения : ДостоверностьИспользование точного потока : ДаОтключение кэша аудио : ДаИспользование указателей C2 : Нет

Коррекция смещения при чтении : 6Способность читать области Lead-in и Lead-out : НетЗаполнение пропущенных сэмплов тишиной : ДаУдаление блоков с тишиной в начале и конце : НетПри вычислениях CRC использовались нулевые сэмплы : ДаИнтерфейс : Встроенный Win32-интерфейс для Win NT/2000

Выходной формат : Пользовательский кодировщикВыбранный битрейт : 128 kBit/sКачество : ВысокийДобавление ID3-тега : НетУтилита сжатия : C:\Program Files\Exact Audio Copy\FLAC\FLAC.EXEДополнительные параметры : -6 -V -T "ARTIST=%artist%" -T "TITLE=%title%" -T "ALBUM=%albumtitle%" -T "DATE=%year%" -T "TRACKNUMBER=%tracknr%" -T "GENRE=%genre%" -T "COMMENT=%comment%" -T "BAND=%albuminterpret%" -T "COMPOSER=%composer%" %haslyrics%--tag-from-

TOC извлечённого CD

Трек | Старт | Длительность | Начальный сектор | Конечный сектор --------------------------------------------------------------------- 1 | 0:00.00 | 2:21.05 | 0 | 10579 2 | 2:21.05 | 3:59.32 | 10580 | 28536 3 | 6:20.37 | 4:13.10 | 28537 | 47521 4 | 10:33.47 | 0:35.60 | 47522 | 50206 5 | 11:09.32 | 3:43.08 | 50207 | 66939 6 | 14:52.40 | 4:49.20 | 66940 | 88634 7 | 19:41.60 | 6:24.05 | 88635 | 117439 8 | 26:05.65 | 4:50.35 | 117440 | 139224 9 | 30:56.25 | 0:35.15 | 139225 | 141864 10 | 31:31.40 | 4:53.50 | 141865 | 163889 11 | 36:25.15 | 3:49.35 | 163890 | 181099 12 | 40:14.50 | 5:42.72 | 181100 | 206821 13 | 45:57.47 | 5:13.18 | 206822 | 230314 14 | 51:10.65 | 0:21.22 | 230315 | 231911 15 | 51:32.12 | 4:43.63 | 231912 | 253199

Характеристики диапазона извлечения и сообщения об ошибках

Выбранный диапазон

Имя файла D:\FLAC\T.M. Stevens Out Of Control - Boom !!.wav

Пиковый уровень 99.5 % Скорость извлечения 3.0 X Качество диапазона 100.0 % CRC теста 02B28CF2 CRC копии 02B28CF2 Копирование... OK

Ошибок не произошло

AccurateRip: сводка

Трек 1 отсутствует в базе данныхТрек 2 отсутствует в базе данныхТрек 3 отсутствует в базе данныхТрек 4 отсутствует в базе данныхТрек 5 отсутствует в базе данныхТрек 6 отсутствует в базе данныхТрек 7 отсутствует в базе данныхТрек 8 отсутствует в базе данныхТрек 9 отсутствует в базе данныхТрек 10 отсутствует в базе данныхТрек 11 отсутствует в базе данныхТрек 12 отсутствует в базе данныхТрек 13 отсутствует в базе данныхТрек 14 отсутствует в базе данныхТрек 15 отсутствует в базе данных

Ни одного трека нет в базе AccurateRip

Конец отчёта

==== Контрольная сумма отчёта F8413A7F8AE2DD5199841E179C051DE2AE4F0690ABFED6B66E2855C8F27582BD ====</span>


Трекер:  [ 09-Дек-2012 15:36 ]

  

Скачать .torrent

Размер .torrent файла 18 KB


Размер: 437 MB
Хэш (hash) релиза: bbdd70e64a362a26e988943b358b39f7ebad52ff

Еще никто не оставлял запись к записи скачать торрент T.M.Stevens Out of control - Boom!! - 1995, FLAC . Будь первым!

!Обратная связь