Скачать через торрент музыку Suicide Circus - World of Hate - 1995, APE бесплатно без регистрации torrent

Если у вас наблюдаются проблемы со скриншотами, переходом по ссылками, скачиванием торрентов - проблемы в блокировщике рекламы AdBlock. #хорошегоДня!


Статистика раздачи
Размер:  294 MB   |    Зарегистрирован:  4 года 8 месяцев   |    .torrent скачан:  15 раз   |   
Раздают:  1  
   
Загрузка...
 
Автор Сообщение

Galfimbul

avatar Galfimbul


Suicide Circus / World of Hate

Жанр: hard rock
Страна-производитель диска: USA
Год издания: 1995
Издатель (лейбл): Perris
Номер по каталогу: SCCD-010
Страна: USA
Аудиокодек: APE (*.ape)
Тип рипа: image+.cue
Битрейт аудио: lossless
Источник (релизер): свой рипъ
Наличие сканов в содержимом раздачи: нет
Треклист:
01. World of Hate
02. If
03. Promised Land
04. Taste My Pain
05. Feel Like Shit
06. I'll Kill You
07. What You Used to See
08. Chivalry Is Dead
09. Yesterday
10. No Way Out
Exact Audio Copy V0.99 prebeta 4 from 23. January 2008

EAC extraction logfile from 3. December 2012, 20:18

Suicide Circus / World Of Hate

Used drive : PIONEER DVD-RW DVR-212 Adapter: 5 ID: 0

Read mode : SecureUtilize accurate stream : YesDefeat audio cache : YesMake use of C2 pointers : No

Read offset correction : 48Overread into Lead-In and Lead-Out : NoFill up missing offset samples with silence : YesDelete leading and trailing silent blocks : NoNull samples used in CRC calculations : YesUsed interface : Native Win32 interface for Win NT & 2000

Used output format : Internal WAV RoutinesSample format : 44.100 Hz; 16 Bit; Stereo

TOC of the extracted CD

Track | Start | Length | Start sector | End sector --------------------------------------------------------- 1 | 0:00.00 | 4:28.28 | 0 | 20127 2 | 4:28.28 | 6:00.02 | 20128 | 47129 3 | 10:28.30 | 3:42.70 | 47130 | 63849 4 | 14:11.25 | 4:24.20 | 63850 | 83669 5 | 18:35.45 | 3:22.53 | 83670 | 98872 6 | 21:58.23 | 3:21.47 | 98873 | 113994 7 | 25:19.70 | 4:41.43 | 113995 | 135112 8 | 30:01.38 | 4:41.55 | 135113 | 156242 9 | 34:43.18 | 5:53.00 | 156243 | 182717 10 | 40:36.18 | 4:17.12 | 182718 | 202004

Range status and errors

Selected range

Filename D:\temp\Suicide Circus - World Of Hate.wav

Peak level 100.0 % Range quality 100.0 % Copy CRC 25CB2B2D Copy OK

No errors occurred

AccurateRip summary

Track 1 accurately ripped (confidence 1) [4458949A]Track 2 accurately ripped (confidence 1) [1CE5DA17]Track 3 accurately ripped (confidence 1) [CB20E34C]Track 4 accurately ripped (confidence 1) [5609960F]Track 5 accurately ripped (confidence 1) [75AD3944]Track 6 accurately ripped (confidence 1) [CF4C094F]Track 7 accurately ripped (confidence 1) [F731E558]Track 8 accurately ripped (confidence 1) [AD4F05E2]Track 9 accurately ripped (confidence 1) [09CCD61E]Track 10 accurately ripped (confidence 1) [3282A38E]

All tracks accurately ripped

End of status report


Трекер:  [ 09-Дек-2012 15:36 ]

  

Скачать .torrent

Размер .torrent файла 24 KB


Размер: 294 MB
Хэш (hash) релиза: 94c2eeee67a902c3ad8bf7b41f25df893ad4b5ce

Еще никто не оставлял запись к записи скачать торрент Suicide Circus - World of Hate - 1995, APE . Будь первым!

!Обратная связь