Скачать через торрент музыку Stone The Crows - Live in Montreux 1972 - 2002, FLAC бесплатно без регистрации torrent

Если у вас наблюдаются проблемы со скриншотами, переходом по ссылками, скачиванием торрентов - проблемы в блокировщике рекламы AdBlock. #хорошегоДня!


Статистика раздачи
Размер:  347 MB   |    Зарегистрирован:  4 года 11 месяцев   |    .torrent скачан:  14 раз   |   
Раздают:  1  
   
Загрузка...
 
Автор Сообщение

Galfimbul

avatar Galfimbul


Stone The Crows / Live in Montreux 1972

Жанр: Rock, Blues-Rock
Страна-производитель диска: UK
Год издания: 2002
Страна: UK
Аудиокодек: FLAC (*.flac)
Тип рипа: tracks+.cue
Битрейт аудио: lossless
Продолжительность: 00:54:56
Источник (релизер): WhatCD - gramsk
Наличие сканов в содержимом раздачи: да
Треклист:
01 - Friends
02 - Penicillin Blues
03 - Love 74
04 - Danger Zone
05 - Hollis Brown
Exact Audio Copy V1.0 beta 1 from 15. November 2010

EAC extraction logfile from 20. January 2011, 12:40

Stone the Crows / Live in Montreux 1972

Used drive : HL-DT-STDVD+-RW GSA-T11N Adapter: 1 ID: 0

Read mode : SecureUtilize accurate stream : YesDefeat audio cache : YesMake use of C2 pointers : No

Read offset correction : 667Overread into Lead-In and Lead-Out : NoFill up missing offset samples with silence : YesDelete leading and trailing silent blocks : NoNull samples used in CRC calculations : NoUsed interface : Native Win32 interface for Win NT & 2000Gap handling : Appended to previous track

Used output format : User Defined EncoderSelected bitrate : 1024 kBit/sQuality : HighAdd ID3 tag : NoCommand line compressor : C:\Program Files\EAC\FLAC\FLAC.EXEAdditional command line options : -8 -V -T "ARTIST=%a" -T "TITLE=%t" -T "ALBUM=%g" -T "DATE=%y" -T "TRACKNUMBER=%n" -T "GENRE=%m" -T "COMMENT=%e" %j--picture="%i"%j %s -o %d

TOC of the extracted CD

Track | Start | Length | Start sector | End sector --------------------------------------------------------- 1 | 0:00.00 | 9:19.29 | 0 | 41953 2 | 9:19.29 | 6:52.59 | 41954 | 72912 3 | 16:12.13 | 11:28.13 | 72913 | 124525 4 | 27:40.26 | 6:14.72 | 124526 | 152647 5 | 33:55.23 | 21:01.23 | 152648 | 247245

Track 1

Filename S:\what.cd\Stone The Crows\Stone The Crows - Live In Montreux 1972 (FLAC)\01 Stone the Crows - Live in Montreux 1972 - Friends.wav

Pre-gap length 0:00:02.00

Peak level 96.6 % Extraction speed 3.4 X Track quality 100.0 % Test CRC 3396C2E2 Copy CRC 3396C2E2 Cannot be verified as accurate (confidence 2) [2C6436E5], AccurateRip returned [9560E422] Copy OK

Track 2

Filename S:\what.cd\Stone The Crows\Stone The Crows - Live In Montreux 1972 (FLAC)\02 Stone the Crows - Live in Montreux 1972 - Penicillin Blues.wav

Peak level 96.6 % Extraction speed 4.0 X Track quality 100.0 % Test CRC F539D625 Copy CRC F539D625 Cannot be verified as accurate (confidence 2) [3B030D0A], AccurateRip returned [04FE7674] Copy OK

Track 3

Filename S:\what.cd\Stone The Crows\Stone The Crows - Live In Montreux 1972 (FLAC)\03 Stone the Crows - Live in Montreux 1972 - Love 74.wav

Peak level 96.6 % Extraction speed 4.8 X Track quality 100.0 % Test CRC 4571A164 Copy CRC 4571A164 Cannot be verified as accurate (confidence 2) [7108D488], AccurateRip returned [4EB801CD] Copy OK

Track 4

Filename S:\what.cd\Stone The Crows\Stone The Crows - Live In Montreux 1972 (FLAC)\04 Stone the Crows - Live in Montreux 1972 - Danger Zone.wav

Peak level 96.6 % Extraction speed 5.1 X Track quality 100.0 % Test CRC 2C9E21A9 Copy CRC 2C9E21A9 Cannot be verified as accurate (confidence 2) [E3598834], AccurateRip returned [7BB1206B] Copy OK

Track 5

Filename S:\what.cd\Stone The Crows\Stone The Crows - Live In Montreux 1972 (FLAC)\05 Stone the Crows - Live in Montreux 1972 - Hollis Brown.wav

Peak level 96.6 % Extraction speed 6.2 X Track quality 100.0 % Test CRC A9CE30FC Copy CRC A9CE30FC Cannot be verified as accurate (confidence 2) [708119D5], AccurateRip returned [D04D4C91] Copy OK

No tracks could be verified as accurateYou may have a different pressing from the one(s) in the database

No errors occurred

End of status report

==== Log checksum B694139068F525DDD8930DEFCD4ADA7F3032E78B57544859CDA449C6344AD5A7 ====
REM GENRE RockREM DATE 1972REM DISCID 3D0CE005REM COMMENT "ExactAudioCopy v1.0b1"PERFORMER "Stone the Crows"TITLE "Live in Montreux 1972"FILE "01 Stone the Crows - Live in Montreux 1972 - Friends.wav" WAVE TRACK 01 AUDIO TITLE "Friends" PERFORMER "Stone the Crows" INDEX 01 00:00:00FILE "02 Stone the Crows - Live in Montreux 1972 - Penicillin Blues.wav" WAVE TRACK 02 AUDIO TITLE "Penicillin Blues" PERFORMER "Stone the Crows" INDEX 01 00:00:00FILE "03 Stone the Crows - Live in Montreux 1972 - Love 74.wav" WAVE TRACK 03 AUDIO TITLE "Love 74" PERFORMER "Stone the Crows" INDEX 01 00:00:00FILE "04 Stone the Crows - Live in Montreux 1972 - Danger Zone.wav" WAVE TRACK 04 AUDIO TITLE "Danger Zone" PERFORMER "Stone the Crows" INDEX 01 00:00:00FILE "05 Stone the Crows - Live in Montreux 1972 - Hollis Brown.wav" WAVE TRACK 05 AUDIO TITLE "Hollis Brown" PERFORMER "Stone the Crows" INDEX 01 00:00:00
AUDIOCHECKER v2.0 beta (build 457) - by Dester - <a href="mailto:opdester@freemail.hu" class="postLink">opdester@freemail.hu</a>~~~~~~~~~~~~~~~~~~~~~~~~~~~~~~~~~~-=== DO NOT EDIT THIS FILE! ===-

Path: ...\Stone The Crows - Live In Montreux 1972 (FLAC)

1 -=- 01 Stone the Crows - Live in Montreux 1972 - Friends.flac -=- CDDA (100%)2 -=- 02 Stone the Crows - Live in Montreux 1972 - Penicillin Blues.flac -=- CDDA (100%)3 -=- 03 Stone the Crows - Live in Montreux 1972 - Love 74.flac -=- CDDA (100%)4 -=- 04 Stone the Crows - Live in Montreux 1972 - Danger Zone.flac -=- CDDA (100%)5 -=- 05 Stone the Crows - Live in Montreux 1972 - Hollis Brown.flac -=- CDDA (100%)

Summary 100,00% CDDA

76443956
[CUETools log; Date: 30.11.2012 19:45:52; Version: 2.1.4][CTDB TOCID: PJVWHtX_LKz5jIgFKGyLHnweos4-] found.Track | CTDB Status 1 | (1/1) Accurately ripped 2 | (1/1) Accurately ripped 3 | (1/1) Accurately ripped 4 | (1/1) Accurately ripped 5 | (1/1) Accurately ripped[AccurateRip ID: 0009c137-002e802c-3d0ce005] found.Track [ CRC | V2 ] Status 01 [2c6436e5|ed1eb2cf] (0+0/6) No match 02 [3b030d0a|742e1aac] (0+0/6) No match 03 [7108d488|fd863441] (0+0/6) No match 04 [e3598834|8506e194] (0+0/6) No match 05 [708119d5|c16c3029] (0+0/6) No matchOffsetted by -86: 01 [9560e422] (4/6) Accurately ripped 02 [04fe7674] (4/6) Accurately ripped 03 [4eb801cd] (4/6) Accurately ripped 04 [7bb1206b] (4/6) Accurately ripped 05 [d04d4c91] (4/6) Accurately ripped

Track Peak [ CRC32 ] [W/O NULL] [ LOG ] -- 96,6 [8C9570A6] [35E51442] 01 96,6 [A40E6E07] [3396C2E2] W/O NULL 02 96,6 [4E1F6F1C] [F539D625] W/O NULL 03 96,6 [44425872] [4571A164] W/O NULL 04 96,6 [D060D53A] [2C9E21A9] W/O NULL 05 96,6 [2D005FA9] [A9CE30FC] W/O NULL
Снято с Ваты, спасибо gramsk !
Сканов от рипа в комплекте нет, как вариант - картинки из Парадиза.

Трекер:  [ 09-Дек-2012 15:36 ]

  

Скачать .torrent

Размер .torrent файла 15 KB


Размер: 347 MB
Хэш (hash) релиза: 870f073e51ee66b30745122381ffc43a385551b8

Еще никто не оставлял запись к записи скачать торрент Stone The Crows - Live in Montreux 1972 - 2002, FLAC . Будь первым!

!Обратная связь